[bittorrent] Widespread Panic * 1998-03-19 * Paris, France (km140)

Automated Mailer noreply-bt.e at etree.org
Wed Oct 10 17:08:33 MDT 2007


Band:           Widespread Panic
Torrent Name:   Widespread Panic * 1998-03-19 * Paris, France (km140)
Uploaded by:    wizardinthecorner
DB Link:        
Details:        http://bt.etree.org/details.php?id=510149

Contact the seeder at http://db.etree.org/wizardinthecorner

If the link to this show does not work, it was probably removed for
being non-trade-friendly.

Description / text file:
-------------------------
Widespread Panic
March 19, 1998
Chesterfield Cafe
Paris, France

Source:  Neumann KM140 > Beyer MV100 > SBM-1 @ 44.1 KHz (fob)
Taped by:  Kurt Vile (DAT clone supplied courtesy of Steve Bohannon)

Transfer:  DAT (c) > Sony 59ES > Audiophile 24/96 > Wavelab 5.0 > CDWave > FLAC v.1.7.1 > .flac (6)
Transfer by:  BobbyHurley

Disc One
01  Intro Tuning
02  It Aint No Use  >
03  Fishwater
04  Genesis
05  Rock

Disc Two
01  Heaven
02  Makes Sense to Me
03  Maggot Brain
04  Greta  >
05  You Got Yours
06  Driving Song  >
07  Holden Oversoul  >
08  Drums  >
09  Driving Song
10  Aint Life Grand
11  Crowd
-=Encore=-
12 Knockin' Round the Zoo *

* - w/ Domingo "Sunny" Ortiz on Drums

Disc Three - Mini-Set earlier in the afternoon for the French press
Source:  Oade Stealth cardiod binaural mics > DA-P1 @ 44.1 KHz
Taped by:  Sarah Browne
Transfer:  DAT (c) > Sony 59ES > Audiophile 24/96 > Wavelab 5.0 > CDWave > FLAC v.1.7.1 > .flac (6)

01  Space Wrangler
02  Pilgrims
03  Hope in a Hopeless World
04  Porch Song

============================

SHNtool Output
    length     expanded size   cdr  WAVE problems filename
     0:43.60        7726364    ---   --   -----   wsp1998-03-19d1t01.wav
    14:37.58      154839260    ---   --   -----   wsp1998-03-19d1t02.wav
    13:00.38      137681420    ---   --   -----   wsp1998-03-19d1t03.wav
     9:05.07       96154508    ---   --   -----   wsp1998-03-19d1t04.wav
     8:25.01       89084396    ---   --   -----   wsp1998-03-19d1t05.wav
     6:17.21       66552236    ---   --   -----   wsp1998-03-19d2t01.wav
     4:44.69       50259932    ---   --   -----   wsp1998-03-19d2t02.wav
     6:39.11       70409516    ---   --   -----   wsp1998-03-19d2t03.wav
    11:07.53      117783500    ---   --   -----   wsp1998-03-19d2t04.wav
    10:52.45      115118684    ---   --   -----   wsp1998-03-19d2t05.wav
     4:21.64       46190972    ---   --   -----   wsp1998-03-19d2t06.wav
     6:30.07       68812508    ---   --   -----   wsp1998-03-19d2t07.wav
    11:07.32      117734108    ---   --   -----   wsp1998-03-19d2t08.wav
     2:38.52       27993548    ---   --   -----   wsp1998-03-19d2t09.wav
     5:26.67       57664028    ---   --   -----   wsp1998-03-19d2t10.wav
     0:15.15        2681324    ---   --   -----   wsp1998-03-19d2t11.wav
     6:59.46       74019836    ---   --   -----   wsp1998-03-19d2t12.wav
     9:27.00      100018844    ---   --   -----   wsp1998-03-19d3t01.wav
     7:16.61       77053916    ---   --   -----   wsp1998-03-19d3t02.wav
     5:13.64       55363772    ---   --   -----   wsp1998-03-19d3t03.wav
     3:39.21       38681036    ---   --   -----   wsp1998-03-19d3t04.wav
   148:30.42        1499.01 MB                    (totals for 21 files, 1.0000 overall compression ratio)

=============================

FLAC Fingerprint
wsp1998-03-19d1t01.flac:41ee25787d8ad1d542016f652b62bb35
wsp1998-03-19d1t02.flac:6983c44db6d9dabcd67de79b7417ad7d
wsp1998-03-19d1t03.flac:7ce2cb6bb12a70c725c098d8d3797f61
wsp1998-03-19d1t04.flac:cff1f260b0f8a0a83e0797a60b33de8e
wsp1998-03-19d1t05.flac:6460f9e6c5dd6ab15d891ac317fc5614
wsp1998-03-19d2t01.flac:d975ec1c9552a308c439d421d356c8d1
wsp1998-03-19d2t02.flac:47c95bae747c81062927cae0f8752f15
wsp1998-03-19d2t03.flac:09b4d789fbc8521777c97080ab627b2f
wsp1998-03-19d2t04.flac:b4f9b376cc186fb5da2d51d2677554f3
wsp1998-03-19d2t05.flac:1593bc032ccdf98b6b3d2393f5935b6c
wsp1998-03-19d2t06.flac:de627b21f24a29f88973e41f4d2f4b82
wsp1998-03-19d2t07.flac:11f4a5a3c06c2056726e39ddb5875414
wsp1998-03-19d2t08.flac:649d5cfe914689d5a0ca0cb3274b0a3c
wsp1998-03-19d2t09.flac:799bfc770f895ee810a454facaa276aa
wsp1998-03-19d2t10.flac:dd2b3902fdf337cf9920682538a5ab41
wsp1998-03-19d2t11.flac:bb5ae7f8f1a4ad1699c2ea789c1b86a4
wsp1998-03-19d2t12.flac:05978c3bb2815caed8b59a6041e14580
wsp1998-03-19d3t01.flac:16f54f97c5e859cc9411c02f9cbde7d8
wsp1998-03-19d3t02.flac:4702caaba8713a7bc5600e65418a743d
wsp1998-03-19d3t03.flac:92d53a1127643505765d72d5c3d73a1c
wsp1998-03-19d3t04.flac:72bf46cf0d7333ad05bc8f9b1e4fd388



More information about the bittorrent mailing list