[bittorrent] wsp1998-03-17.akg481.flac16

Automated Mailer noreply-bt.e at etree.org
Wed Oct 10 00:34:41 MDT 2007


Band:           Widespread Panic
Torrent Name:   wsp1998-03-17.akg481.flac16
Uploaded by:    MikeG
DB Link:        http://db.etree.org/shninfo_detail.php?shnid=29647
Details:        http://bt.etree.org/details.php?id=510141

Contact the seeder at http://db.etree.org/MikeG

If the link to this show does not work, it was probably removed for
being non-trade-friendly.

Description / text file:
-------------------------
Widespread Panic
March 17, 1998
Chesterfield Cafe
Paris, France

Source:  AKG 481 > Sonosax SX-M2 > sbm-1 @ 48 KHz
Taped by: Pat Sprowls (DAT clone supplied courtesy of Steve Bohannon)

Transfer:  DAT (c) > Monster RCA > mod-sbm-1 (48KHz) > Audiophile 24/96 > Wavelab 5.0 > CDWave > FLAC v.1.7.1 > .flac (6)
Transfer by:  BobbyHurley

Disc One
01  Stop-Go >
02  Hatfield >
03  Walkin' (for your love) >
04  Aunt Avis
05  Disco >
06  Arleen
07  Blackout Blues
08  Nobody's Loss

Disc Two
01  Junior >
02  Drums >
03  Jam >
04  I'm Not Alone >
05  Tie Your Shoes >
06  Good Mornin' Little Schoolgirl >
07  Radio Child

-= Encore =-
08  Mr. Soul

-= Soundcheck =-
09  She Caught the Katy
10  Big Wooly Mammoth

Notes:  the recording levels on the DAT were extremely low;
 I was able to adjust the gain by routing the signal from the
 59ES through the mod-sbm-1 (rca in > coax out to 2496);
 small spot of diginoise in the crowd noise before 'Stop-Go';
 sounds like a fan or AC unit was turned on at some point in the 
'Drums' segment, mostly noticeable during the quiet parts;
 from all accounts this was a rowdy crowd, and the tapes prove it;
 a bit of right channel static in the soundcheck 'Katy' possibly due 
to the taper adjusting his gear

   length     expanded size   cdr  WAVE problems filename
     7:08.53       75623900    ---   --   -----   wsp1998-03-17d1t01.wav
    14:31.73      153816140    ---   --   -----   wsp1998-03-17d1t02.wav
     7:45.01       82028396    ---   --   -----   wsp1998-03-17d1t03.wav
     4:04.25       43100444    ---   --   -----   wsp1998-03-17d1t04.wav
     5:12.63       55185020    ---   --   -----   wsp1998-03-17d1t05.wav
     8:32.38       90406220    ---   --   -----   wsp1998-03-17d1t06.wav
     7:03.31       74690156    ---   --   -----   wsp1998-03-17d1t07.wav
     7:46.28       82268300    ---   --   -----   wsp1998-03-17d1t08.wav
    16:56.08      179241260    ---   --   -----   wsp1998-03-17d2t01.wav
     6:47.41       71891276    ---   --   -----   wsp1998-03-17d2t02.wav
     6:00.60       63645164    ---   --   -----   wsp1998-03-17d2t03.wav
     6:26.71       68257436    ---   --   -----   wsp1998-03-17d2t04.wav
     7:14.34       76637612    ---   --   -----   wsp1998-03-17d2t05.wav
     8:44.37       92520668    ---   --   -----   wsp1998-03-17d2t06.wav
     8:00.45       84777884    ---   --   -----   wsp1998-03-17d2t07.wav
     6:28.47       68553788    ---   --   -----   wsp1998-03-17d2t08.wav
     6:28.27       68506748    ---   --   -----   wsp1998-03-17d2t09.wav
     5:08.59       54470012    ---   --   -----   wsp1998-03-17d2t10.wav
   140:21.66        1416.80 MB                    (totals for 18 files, 1.0000 overall compression ratio)

wsp1998-03-17d1t01.flac:706f332c009b0af1f1596aa603b0e7e3
wsp1998-03-17d1t02.flac:01e33acb2afae117ade384bc8d3d756d
wsp1998-03-17d1t03.flac:8b9218e1f5a5517b13e498c6a9daa42d
wsp1998-03-17d1t04.flac:2eb9659281f67b4440009304cfcdc128
wsp1998-03-17d1t05.flac:99313eb3447c194ec033bdb27d1995c4
wsp1998-03-17d1t06.flac:e1a4a6b52a22145c7f330ad7d5a3ae71
wsp1998-03-17d1t07.flac:cfffbc9d95062dcbb245cff553a65142
wsp1998-03-17d1t08.flac:7346cd86b95c11b438ef0fc3a251f782
wsp1998-03-17d2t01.flac:7463141fdcc8629b15e6ad44f5aab185
wsp1998-03-17d2t02.flac:3b238b98c33d9677849bde551daa2bde
wsp1998-03-17d2t03.flac:0f3a238f097c0a23728556ddffbff9c5
wsp1998-03-17d2t04.flac:cb5d2b3e3a14c24bd072c0922f3d7324
wsp1998-03-17d2t05.flac:cfe81eab09e440a09024b6db28fa3bb3
wsp1998-03-17d2t06.flac:6b3e42f8ce7aa23c47d1ab20d5e99996
wsp1998-03-17d2t07.flac:5ee467bfe7227a2f2e86951ba5da41f9
wsp1998-03-17d2t08.flac:e4b53f3ab8c5ec9872001a0e60519ae2
wsp1998-03-17d2t09.flac:2088c0844ed35792fd2b964c58906457
wsp1998-03-17d2t10.flac:5d728ace6571359c8b8c2c5c2165b748




More information about the bittorrent mailing list