[bittorrent] Phish - 2/4/93 - Providence, RI - (FOB) Schoeps mk4 - new source to circulation

Automated Mailer noreply-bt.e at etree.org
Mon Oct 8 15:56:01 MDT 2007


Band:           Phish
Torrent Name:   Phish - 2/4/93 - Providence, RI - (FOB) Schoeps mk4 - new source to circulation
Uploaded by:    jasonsobel
DB Link:        http://db.etree.org/shn/87504
Details:        http://bt.etree.org/details.php?id=510094

Contact the seeder at http://db.etree.org/jasonsobel

If the link to this show does not work, it was probably removed for
being non-trade-friendly.

Description / text file:
-------------------------
Phish
February 4, 1993
Providence Performing Arts Center
Providence, RI

source:
(FOB) Schoeps mk4 > kc5 > cmc5 > Sonosax SX-M2 > Teac DA-P20 (@ 48 kHz)

transfer:
Tascam DA-20MKII > Tascam HD-P2 > CF card > usb 2.0 > pc > WaveLab 5.01b (de-emphasis, resample to 44.1 kHz, fades, patch) > CD Wave v1.96.1 > FLAC v1.2.1 (Level 8)

FLAC tags added with metaflac v1.2.1

transferred by Jason Sobel (jasonsobel at gmail.com)
seeded October 1, 2007

notes:
The original DAT recording was made with pre-emphasis.
The Waves Q10 Paragraphic EQ v5.0 plug-in was used to de-emphasize the recording.
The original 48 kHz .wav files from the DAT transfer have been archived, and are available upon request.
Big thanks to Dave Flaschner for letting me borrow his DAT tape!

Disc 1 - [75:05]
Set I
01 - [03:35] - Axilla
02 - [08:10] - Foam
03 - [03:47] - Bouncing Around the Room
04 - [09:32] - Maze
05 - [05:14] - Fast Enough for You
06 - [02:57] - All Things Reconsidered
07 - [11:46] - Stash
08 - [09:58] - The Lizards
09 - [04:37] - Sample in a Jar *
10 - [04:42] - Glide
11 - [10:46] - Run Like an Antelope

Disc 2 - [46:56]
Set II
01 - [06:59] - Chalk Dust Torture
02 - [06:54] - The Wedge
03 - [07:51] - Mike's Song >
04 - [03:56] - The Man Who Stepped Into Yesterday >
05 - [03:06] - Avenu Malkenu >
06 - [01:26] - The Man Who Stepped Into Yesterday Reprise >
07 - [10:01] - Weekapaug Groove
08 - [02:33] - Lawn Boy
09 - [04:12] - Uncle Pen

Disc 3 - [38:58]
Set II continued
01 - [03:29] - Big Ball Jam
02 - [01:32] - HYHU
03 - [04:49] - Lengthwise
04 - [01:10] - HYHU
05 - [12:39] - Harry Hood
06 - [04:26] - Cavern
07 - [03:17] - encore break
08 - [02:31] - Amazing Grace **
09 - [05:05] - Good Times Bad Times

* debut
** performed without microphones

tech notes:
"Axilla" and the beginning of "Foam" were missing from the DAT.
Also, the very beginning of "Chalk Dust Torture" was missing, 
and there were various spots of digi-noise during "Chalk Dust" as well.

These portions were spliced in with the following source:
AKG 451 > ? > Sony D3
http://db.etree.org/shn/20850
As noted in the AKG db.etree.org entry, there are some distortion issues during "Axilla".
The AKG patch source was also de-emphasized, because it had clearly been recorded with pre-emphasis.

The AKG patch source was used for the following portions:
Axilla - all
Foam - [00:00] to [02:22]
Chalk Dust Torture:
[00:00] to [00:37]
[01:16] to [02:42]
[03:17] to [03:28]

------------------------------------------------------------------------------------------------------

SHNtool output:

    length     expanded size   cdr  WAVE problems filename
     3:35.26       37987196    ---   --   ---xx   ph1993-02-04d1t01.flac
     8:10.03       86443100    ---   --   ---xx   ph1993-02-04d1t02.flac
     3:46.65       40019324    ---   --   ---xx   ph1993-02-04d1t03.flac
     9:31.56      100856156    ---   --   ---xx   ph1993-02-04d1t04.flac
     5:13.74       55387292    ---   --   ---xx   ph1993-02-04d1t05.flac
     2:57.46       31331036    ---   --   ---xx   ph1993-02-04d1t06.flac
    11:46.27      124601948    ---   --   ---xx   ph1993-02-04d1t07.flac
     9:58.25      105546044    ---   --   ---xx   ph1993-02-04d1t08.flac
     4:36.67       48844028    ---   --   ---xx   ph1993-02-04d1t09.flac
     4:41.50       49686044    ---   --   ---xx   ph1993-02-04d1t10.flac
    10:46.11      113980316    ---   --   ---xx   ph1993-02-04d1t11.flac
     6:58.64       73885772    ---   --   ---xx   ph1993-02-04d2t01.flac
     6:54.05       73041404    ---   --   ---xx   ph1993-02-04d2t02.flac
     7:50.65       83060924    ---   --   ---xx   ph1993-02-04d2t03.flac
     3:55.49       41569292    ---   --   ---xx   ph1993-02-04d2t04.flac
     3:05.57       32768108    ---   --   ---xx   ph1993-02-04d2t05.flac
     1:25.40       15088124    ---   --   ---xx   ph1993-02-04d2t06.flac
    10:00.61      105983516    ---   --   ---xx   ph1993-02-04d2t07.flac
     2:33.08       27008060    ---   --   ---xx   ph1993-02-04d2t08.flac
     4:11.55       44405804    ---   --   ---xx   ph1993-02-04d2t09.flac
     3:28.41       36787676    ---   --   ---xx   ph1993-02-04d3t01.flac
     1:31.70       16217084    ---   --   ---xx   ph1993-02-04d3t02.flac
     4:49.18       51021980    ---   --   ---xx   ph1993-02-04d3t03.flac
     1:10.03       12355100    ---   --   ---xx   ph1993-02-04d3t04.flac
    12:38.63      133859420    ---   --   ---xx   ph1993-02-04d3t05.flac
     4:25.65       46898924    ---   --   ---xx   ph1993-02-04d3t06.flac
     3:17.32       34826108    ---   --   ---xx   ph1993-02-04d3t07.flac
     2:30.73       26631740    ---   --   ---xx   ph1993-02-04d3t08.flac
     5:05.32       53877308    ---   --   ---xx   ph1993-02-04d3t09.flac
   160:59.51     1703968828 B                     (totals for 29 files, 0.5643 overall compression ratio)

--------------------------------------------------------------------------------------------------------
FLAC Fingerprint:
ph1993-02-04d1t01.flac:24dcd9bc89782ab4c01a507efa1ab901
ph1993-02-04d1t02.flac:ab78fd1c4d79c855787eecc0f983df3a
ph1993-02-04d1t03.flac:8e2be0cdfb22d5c2362fe534387a315c
ph1993-02-04d1t04.flac:9de2c3f10a8884d6280abbdb0c532ae1
ph1993-02-04d1t05.flac:0a9b597c432e11f2b86fac332dd09fe1
ph1993-02-04d1t06.flac:e4343d818f37b1fbe3b30f7d4febccc4
ph1993-02-04d1t07.flac:e533423bbc295efe00a12844ef83fc69
ph1993-02-04d1t08.flac:3fe99e4505dac672a88575728b72a0fb
ph1993-02-04d1t09.flac:57e91b177093686bddb3021ff5a71b7e
ph1993-02-04d1t10.flac:2ccd3a7d67a4ac21ddbac9f202caaa88
ph1993-02-04d1t11.flac:42d9e74aac18de1d3f35ae991e312531
ph1993-02-04d2t01.flac:215c9f599cf2bf53f68369fb8b29dd71
ph1993-02-04d2t02.flac:9e209b91e4e9fb37ccdf3cd1c88114c2
ph1993-02-04d2t03.flac:ed1e73fece0828a6a94a900225a507c8
ph1993-02-04d2t04.flac:8f141ad8c691a9b9e9bb7454ae3b1a01
ph1993-02-04d2t05.flac:671bb2326f35f54d1ce4822fd3dd20c0
ph1993-02-04d2t06.flac:8bc1e089b2a4eefcbc4d01e2a1ba17c2
ph1993-02-04d2t07.flac:e479adadde9ee1d19a7a2470a05591ed
ph1993-02-04d2t08.flac:b7c9313f2049e22c8622b71e7264ed63
ph1993-02-04d2t09.flac:9c2f56a49b09e3c1a6f86a94b579754a
ph1993-02-04d3t01.flac:2037201cf51c9ea4ddcc8afaa50ae4fb
ph1993-02-04d3t02.flac:8972d8d35474e3d6ddfd67bd8644447e
ph1993-02-04d3t03.flac:3c1f8efd0c9578977f7979448cc4e8ff
ph1993-02-04d3t04.flac:b69104f4c28edae4d1f1e9fa37021c3c
ph1993-02-04d3t05.flac:51afe620f1a8ce9fbddfaa57c69e0539
ph1993-02-04d3t06.flac:85505704edd6ee100daa5d52a6b34cd5
ph1993-02-04d3t07.flac:6029c0cf2e6b0c21eb239d835257c864
ph1993-02-04d3t08.flac:cfdd97816ffe133438ea50a1ed1dd135
ph1993-02-04d3t09.flac:b810f5ad745b5f940d0f4a66f0da1059
--------------------------------------------------------------------------------------------------------
wav md5:
99be4a4cc9eabd40fa2d964684798464 *ph1993-02-04d1t01.wav
f3a11aea03457e9e2051f9e51a16930d *ph1993-02-04d1t02.wav
4b7dd5271da25532121008ed5533dbc9 *ph1993-02-04d1t03.wav
df3416b807c3f205c1a3ac483586b6c4 *ph1993-02-04d1t04.wav
d5e70fc789b53c1c533614fbf3b5f0ec *ph1993-02-04d1t05.wav
fff959c6c3346f53dddf437470ee0b07 *ph1993-02-04d1t06.wav
16589c87e296f7e8322c71e5b62fd6c5 *ph1993-02-04d1t07.wav
5799233245149e288ab3906a2bae8a4f *ph1993-02-04d1t08.wav
d0861f6de1d5649867b9f3252916572f *ph1993-02-04d1t09.wav
b4b8cf0c044645563c3a5712df7d7c54 *ph1993-02-04d1t10.wav
aec3efeefb2f030096610da40eee0be0 *ph1993-02-04d1t11.wav
96c26458034ed5db9e023e60171ebb22 *ph1993-02-04d2t01.wav
e3021b92fa497bd3d9b7d310d1b02a02 *ph1993-02-04d2t02.wav
518ef43c3c6360592c9d629558c57108 *ph1993-02-04d2t03.wav
46cb63b251a664f8fa498b6648a9f742 *ph1993-02-04d2t04.wav
91f0a3cc6dbb55b0ebc2489352def4be *ph1993-02-04d2t05.wav
81b1eedefe3f3ef6c3fe325ea4cd306e *ph1993-02-04d2t06.wav
047cf482876dd97f6dae50f3fcbb4265 *ph1993-02-04d2t07.wav
c3cc489d2733fb7d2a8f138a460ffdaf *ph1993-02-04d2t08.wav
c4a1431d6b76d73c504c89e89ece50ea *ph1993-02-04d2t09.wav
9acd751a0c1d4af7e8f2860f9ae52427 *ph1993-02-04d3t01.wav
5654ea6f838d35fc2c7c84892469fb65 *ph1993-02-04d3t02.wav
f93c64c963154373b6774f0f46516d6b *ph1993-02-04d3t03.wav
e7b2c63cb7e136ba974ffd46b3841f96 *ph1993-02-04d3t04.wav
94844625ecc4608514d470d8e40e04ff *ph1993-02-04d3t05.wav
413dcd5c9ed454951774d4554b6a2d42 *ph1993-02-04d3t06.wav
423fe7869ca5fa8385b6f64dc0b01ee8 *ph1993-02-04d3t07.wav
0c1761ecc390c25b9e9789e2d8276dbf *ph1993-02-04d3t08.wav
39a0e63e5d7bb5142a6a3e53d8f93e37 *ph1993-02-04d3t09.wav
--------------------------------------------------------------------------------------------------------



More information about the bittorrent mailing list