[bittorrent] Galactic--Berkshire Mtn Fest--Great Barrington, MA--8/13/00--Stone AKG

Automated Mailer noreply-bt.e at etree.org
Mon Oct 8 08:19:26 MDT 2007


Band:           Galactic
Torrent Name:   Galactic--Berkshire Mtn Fest--Great Barrington, MA--8/13/00--Stone AKG
Uploaded by:    chrisdavis
DB Link:        
Details:        http://bt.etree.org/details.php?id=510085

Contact the seeder at http://db.etree.org/chrisdavis

If the link to this show does not work, it was probably removed for
being non-trade-friendly.

Description / text file:
-------------------------
Galactic
Berkshire Mountain Music Festival
Great Barrington, MA
August 13, 2000

source:  AKG c1000's -> D8
taper:  Ian Stone

transfer: Tascam DA-20mkII -> Acoustic Research coax -> Audiophile 24/96 -> Wavelab 5.0 (record, 48>44.1, fades) -> CD Wave -> FLAC(6)
transfer: Chris Davis (10/5/07) 

One Set/One Disc:     (72:44)

  (MISSING)   Sibuya   (MISSING)

01.  (6:06)   ..Doo Rag
02.  (6:22)   Uno Dos Tres Quatro
03.  (5:00)   Bobski 2000
04.  (6:29)   Villified*
05.  (4:20)   Century City
06.  (3:59)   Thrill
07.  (5:54)   Daktari
08.  (6:32)   Baker's Dozen
09.  (4:30)   Lumpology
10.  (6:03)   Something's Wrong with This Picture
11.  (4:06)   Sweetleaf
12.  (4:51)   New Jam in A
13.  (8:32)   Black Eyed Pea

    length     expanded size    cdr  WAVE problems  fmt   ratio  filename
     6:06.36       64647116 B   ---   --   -----    wav  1.0000  gal2000-08-13d1t01.wav
     6:22.04       67394252 B   ---   --   -----    wav  1.0000  gal2000-08-13d1t02.wav
     5:00.10       52943564 B   ---   --   -----    wav  1.0000  gal2000-08-13d1t03.wav
     6:29.46       68727836 B   ---   --   -----    wav  1.0000  gal2000-08-13d1t04.wav
     4:20.31       45936956 B   ---   --   -----    wav  1.0000  gal2000-08-13d1t05.wav
     3:59.16       42197276 B   ---   --   -----    wav  1.0000  gal2000-08-13d1t06.wav
     5:54.65       62598524 B   ---   --   -----    wav  1.0000  gal2000-08-13d1t07.wav
     6:32.41       69245276 B   ---   --   -----    wav  1.0000  gal2000-08-13d1t08.wav
     4:30.17       47668028 B   ---   --   -----    wav  1.0000  gal2000-08-13d1t09.wav
     6:03.73       64204940 B   ---   --   -----    wav  1.0000  gal2000-08-13d1t10.wav
     4:06.14       43427372 B   ---   --   -----    wav  1.0000  gal2000-08-13d1t11.wav
     4:51.28       51398300 B   ---   --   -----    wav  1.0000  gal2000-08-13d1t12.wav
     8:32.07       90333308 B   ---   --   -----    wav  1.0000  gal2000-08-13d1t13.wav
    72:49.13      770722748 B                            1.0000  (13 files)

gal2000-08-13d1t01.flac:b06ea13b2aeec1e3cdb3f3b7af225549
gal2000-08-13d1t02.flac:82306de9a203a71d053f2553d42dd92f
gal2000-08-13d1t03.flac:26a0c21cdd823ed3c8c73710f651144b
gal2000-08-13d1t04.flac:4b4e9b0ddc930f5499d3ca7912e7a5ed
gal2000-08-13d1t05.flac:f741f4b11a41fe0e115036b6e805fa62
gal2000-08-13d1t06.flac:a62218e9d2d1f16704414772bfeb910e
gal2000-08-13d1t07.flac:56cd762fb1df67aef5218aa4bfe3d276
gal2000-08-13d1t08.flac:e98ee40a8b5670dd67138d1507e271f8
gal2000-08-13d1t09.flac:85846087e5590fb2a80362b72fe7a374
gal2000-08-13d1t10.flac:269fa3eea57a47944c50134b6d6e26c4
gal2000-08-13d1t11.flac:acea24df2f8759595d22ddafeedc6651
gal2000-08-13d1t12.flac:968aa65a32859fd159683c87ed06eaf3
gal2000-08-13d1t13.flac:adf95fa2fed52f8b8d8df574cd66560c





More information about the bittorrent mailing list