[bittorrent] Grateful Dead 1982-05-28 Moscone Covention Center * Solid new source - complete! *

Automated Mailer noreply-bt.e at etree.org
Sat Oct 6 14:52:39 MDT 2007


Band:           Grateful Dead
Torrent Name:   Grateful Dead 1982-05-28 Moscone Covention Center * Solid new source - complete! *
Uploaded by:    Albix
DB Link:        http://db.etree.org/shn/87547
Details:        http://bt.etree.org/details.php?id=510051

Contact the seeder at http://db.etree.org/Albix

If the link to this show does not work, it was probably removed for
being non-trade-friendly.

Description / text file:
-------------------------
Grateful Dead
5/28/82 - Friday
Moscone Convention Center
San Francisco, CA

Source: 2nd Gen Cassette; Sennheiser 441s > Sony D5

Taper: unknown

Transfer: Cassette > Nakamichi Dragon > RCA/XLR > Lunatec V3 (@ 2496) > coax >
Audiophile 2496 > WaveLab 5.0 > .wav @ 2496 > Wave L3 UltraMaximizer >
.wav @ 16/44.1 > CD Wave Editor > Trader's Little Helper > FLAC(8).


Set I:

d1t01 Alabama Getaway >
d1t02 Greatest Story Ever Told
d1t03 Althea
d1t04 Little Red Rooster  
d1t05 Tennessee Jed
d1t06 Truckin' >
d1t07 Dr//ums** >
d1t08 Space >
d1t09 Goin' Down The Road Feeling Bad >
d1t10 Not Fade Away+

Set II:

d2t01 Boz Scaggs introduced by Bob Weir
d2t02 Walkin' Blues*
d2t03 A Mind To Give Up Livin'* >  
d2t04 Turn On Your Lovelight* >
d2t05 Johnny B. Goode*



Comments:

- Airto Played whole show
- *with Boz Scaggs & John Cipollina  **with Flora Purim +with John Cipollina
- Vietnam Vets benefit - lineup: Country Joe; GD; Jefferson Starship
- only "A Mind To Give Up Livin'" - last "Walkin' Blues": 10/07/66 [1294]

Notes:

- SBE Free.
- Complete show with the exception of the tape flip during Drums.
- Source cassette graciously provided by [b]Mark McCue[/b].
- Transfer, edits, conversion & seeding by Alex Ford September 2007.




Shntool Output:

    length     expanded size   cdr  WAVE problems filename
     5:28.56       57990956    ---   --   -----   gd1982-05-28d1t01.wav
     4:11.25       44335244    ---   --   -----   gd1982-05-28d1t02.wav
     7:22.03       77975900    ---   --   -----   gd1982-05-28d1t03.wav
     8:26.56       89390156    ---   --   -----   gd1982-05-28d1t04.wav
     8:31.42       90239228    ---   --   -----   gd1982-05-28d1t05.wav
    10:18.07      109031708    ---   --   -----   gd1982-05-28d1t06.wav
     3:47.58       40179260    ---   --   -----   gd1982-05-28d1t07.wav
     3:18.34       35007212    ---   --   -----   gd1982-05-28d1t08.wav
     7:12.35       76287164    ---   --   -----   gd1982-05-28d1t09.wav
     6:52.07       72693308    ---   --   -----   gd1982-05-28d1t10.wav
     0:27.50        4880444    ---   --   -----   gd1982-05-28d2t01.wav
     6:58.72       73904588    ---   --   -----   gd1982-05-28d2t02.wav
     9:09.21       96893036    ---   --   -----   gd1982-05-28d2t03.wav
     5:34.24       58974092    ---   --   -----   gd1982-05-28d2t04.wav
     5:18.16       56132876    ---   --   -----   gd1982-05-28d2t05.wav
    92:57.56      983915172 B                     (totals for 15 files, 1.0000 overall compression ratio)



More information about the bittorrent mailing list