[bittorrent] Widespread Panic 2007-10-05 Paramount Theatre * Seattle, WA

Automated Mailer noreply-bt.e at etree.org
Sat Oct 6 14:40:09 MDT 2007


Band:           Widespread Panic
Torrent Name:   Widespread Panic 2007-10-05 Paramount Theatre * Seattle, WA
Uploaded by:    cfox
DB Link:        
Details:        http://bt.etree.org/details.php?id=510050

Contact the seeder at http://db.etree.org/cfox

If the link to this show does not work, it was probably removed for
being non-trade-friendly.

Description / text file:
-------------------------
Widespread Panic
Paramount Theatre 
Seattle, WA
2007-10-05

source: Schoeps mk41v(dina)~>kc5~>m222~>nt222 + mk4v/mk8(mid-side)~>kcy~>vms5u~>744t (24/96)
location: ots/dfc
dsp: 744t~>wavelab5~>cdwave~>wavelab5~>flac(8)
recorded & seeded: charles fox

set 1 disc 1
01 Jam >
02 Time Zones
03 Holden Oversoul >
04 Solid Rock
05 Gradle
06 Weight of the World
07 Crippled Inside
08 Diner >

set 1 disc 2
01 PAYMH >
02 Stop Breakin Down Blues

set 2 disc 2
03 Jam >
04 Aint Life Grand
05 WDYBT? >
06 B of D >
07 Barstools & Dreamers

set 2 disc 3
01 Second Skin >
02 Greta >
03 I Walk on Guilded Splinters >
04 Drums >
05 Action Man
Encore 
06 Expiration Day >
07 Climb To Safety

ffp
wsp2007-10-05d1t01.flac:cf8571c25be69aa037fcabf4e19a60aa
wsp2007-10-05d1t02.flac:83e9ab2bad3ea2df87eaf17dcf07e2e1
wsp2007-10-05d1t03.flac:1e20d001452b4752c8b99fc60840ee91
wsp2007-10-05d1t04.flac:61ff03f9148f60c38e056c70bccb54bf
wsp2007-10-05d1t05.flac:caa0edaf91ae0233151e421c4a1c4028
wsp2007-10-05d1t06.flac:79cc9605bfa73770444d780530ef3a1c
wsp2007-10-05d1t07.flac:6f305bbe0df9e7ef698d3f2867e1acb6
wsp2007-10-05d1t08.flac:dcc86b191442a960a6f7202023037646
wsp2007-10-05d2t01.flac:90fa4067fb448e74094aaf41fa21f88c
wsp2007-10-05d2t02.flac:a8f6bf8fcb9a63c5dcc31f5d406cc790
wsp2007-10-05d2t03.flac:6ed87bd710013adc57c6b0a099fdfb06
wsp2007-10-05d2t04.flac:6502dea33fb44ab62ff356fc2ad8d7f4
wsp2007-10-05d2t05.flac:9fb9252447ab20be53eb489c8747b8df
wsp2007-10-05d2t06.flac:e6b2af681d945450adbbd59191028677
wsp2007-10-05d2t07.flac:d14ee2e8684ff2e584c80d1876260481
wsp2007-10-05d3t01.flac:4aff567f6b8738dfd17278ae3439f8e0
wsp2007-10-05d3t02.flac:ee4933c9eb791a511cfd22cd9a2d7314
wsp2007-10-05d3t03.flac:4cc061cf7a168118e4a25561e5748eb4
wsp2007-10-05d3t04.flac:6a4415b0ef6a4eb98df13cb4c0afa59d
wsp2007-10-05d3t05.flac:d79481f8b0c1279259d686e6ecd74ffd
wsp2007-10-05d3t06.flac:481e0eb800b8e74f1f7a712e09c9edf0
wsp2007-10-05d3t07.flac:acc540c8feba286de7a3f2b74701546a

shntool
    length     expanded size   cdr  WAVE problems filename
     5:37.56       59578556    ---   --   ---xx   wsp2007-10-05d1t01.flac
     6:32.30       69219404    ---   --   ---xx   wsp2007-10-05d1t02.flac
    10:23.37      109984268    ---   --   ---xx   wsp2007-10-05d1t03.flac
     9:35.24      101486492    ---   --   ---xx   wsp2007-10-05d1t04.flac
     5:11.07       54876908    ---   --   ---xx   wsp2007-10-05d1t05.flac
     5:52.60       62233964    ---   --   ---xx   wsp2007-10-05d1t06.flac
     5:03.23       53503340    ---   --   ---xx   wsp2007-10-05d1t07.flac
    19:01.52      201394748    ---   --   ---xx   wsp2007-10-05d1t08.flac
     8:22.17       88592828    ---   --   ---xx   wsp2007-10-05d2t01.flac
     6:39.29       70451852    ---   --   ---xx   wsp2007-10-05d2t02.flac
     6:27.66       68422076    ---   --   ---xx   wsp2007-10-05d2t03.flac
     7:00.40       74182124    ---   --   ---xx   wsp2007-10-05d2t04.flac
     6:18.16       66716876    ---   --   ---xx   wsp2007-10-05d2t05.flac
     3:37.19       38323532    ---   --   ---xx   wsp2007-10-05d2t06.flac
    10:52.17      115052828    ---   --   ---xx   wsp2007-10-05d2t07.flac
    18:57.00      200566844    ---   --   ---xx   wsp2007-10-05d3t01.flac
    13:35.43      143867180    ---   --   ---xx   wsp2007-10-05d3t02.flac
    15:26.64      163496972    ---   --   ---xx   wsp2007-10-05d3t03.flac
     2:45.32       29181308    ---   --   ---xx   wsp2007-10-05d3t04.flac
     6:50.54       72451052    ---   --   ---xx   wsp2007-10-05d3t05.flac
     5:06.20       54025484    ---   --   ---xx   wsp2007-10-05d3t06.flac
     5:55.16       62659676    ---   --   ---xx   wsp2007-10-05d3t07.flac
   185:12.47     1960268312 B                     (totals for 22 files, 0.5637 overall compression ratio)




More information about the bittorrent mailing list