[bittorrent] *Branford Marsalis * Daniel Island, SC * Sept. 22, 2007 *

Automated Mailer noreply-bt.e at etree.org
Sat Oct 6 12:45:25 MDT 2007


Band:           Other
Torrent Name:   *Branford Marsalis * Daniel Island, SC * Sept. 22, 2007 *  
Uploaded by:    shoreline_productions
DB Link:        
Details:        http://bt.etree.org/details.php?id=510043

Contact the seeder at http://db.etree.org/shoreline_productions

If the link to this show does not work, it was probably removed for
being non-trade-friendly.

Description / text file:
-------------------------
Branford Marsalis
Tennis Stadium
Daniel Island, SC
September 22, 2007 (Saturday)

Chazzfest '07

source:  Church Audio STC-11's (cards) -> Church Audio ST-9000 -> JB3
location:  Upper Tennis Court Center Section / clamped to railing / DFC
transfer:  JB3 -> Creative Play Center -> CD Wave Editor -> FLAC (6)

One Set/One Disc:  (57:00)

01.  (7:47)   In the Crease*
02.  (11:53)  Cassandra
03.  (9:49)   Vodville
04.  (12:58)  Rythym-A-Ning
05.  (4:55)   And Then He Was Gone ->
06.  (9:38)   Samo

*pop removed at :16, sound/volume improves afterwards.

Branford Marsalis--------Alto Saxophone
Calvin Johnson-----------Tenor Saxophone
Jeff "Tain" Watts--------Drums
Eric Revis---------------Bass
Joey Calderazzo----------Piano

**Special thanks to Shoreline Productions for encouraging the recording of taper-friendly artists**

bm2007-09-22d1t01.flac:6e3ae1033edfb65c73608d2a8168fe62
bm2007-09-22d1t02.flac:06c479d304d2022858b16cd486357df4
bm2007-09-22d1t03.flac:205a27d7768de9ee3ee44075f70c13f5
bm2007-09-22d1t04.flac:442a6cc897cb64adc25569e822d8e43b
bm2007-09-22d1t05.flac:a96045bd9044a4c78909a27fcea9c2c5
bm2007-09-22d1t06.flac:800de8d11125552c8db0cc7e3f57ce73

  length     expanded size    cdr  WAVE problems  fmt   ratio  filename
     7:47.24       82435292 B   ---   --   -----    wav  1.0000  bm2007-09-22d1t01.wav
    11:53.30      125843804 B   ---   --   -----    wav  1.0000  bm2007-09-22d1t02.wav
     9:49.27      103963148 B   ---   --   -----    wav  1.0000  bm2007-09-22d1t03.wav
    12:58.43      137340380 B   ---   --   -----    wav  1.0000  bm2007-09-22d1t04.wav
     4:55.34       52118012 B   ---   --   -----    wav  1.0000  bm2007-09-22d1t05.wav
     9:38.14      101992172 B   ---   --   -----    wav  1.0000  bm2007-09-22d1t06.wav
    57:02.22      603692808 B                            1.0000  (6 files)




More information about the bittorrent mailing list