[bittorrent] gd1979-05-08.fob.glassberg.motb.0028.87517.flac16

Automated Mailer noreply-bt.e at etree.org
Sat Oct 6 10:52:27 MDT 2007


Band:           Grateful Dead
Torrent Name:   gd1979-05-08.fob.glassberg.motb.0028.87517.flac16
Uploaded by:    go_oski
DB Link:        http://db.etree.org/shn/87517
Details:        http://bt.etree.org/details.php?id=510039

Contact the seeder at http://db.etree.org/go_oski

If the link to this show does not work, it was probably removed for
being non-trade-friendly.

Description / text file:
-------------------------
MOTB Release: 0028 16/44.1
Release Date: 10/02/2007
Band: Grateful Dead
Date: 05/08/1979 - Tuesday
Venue: Recreation Hall - Penn State University
Location: University Park, PA
Source: Audience FOB Recording, Right Center Soundboard
Media: MAC = Maxell UD XL II C90
Lineage: Nakamichi CM700's > Sony TC-158SD > MAC
Transfer: MAC > Nakamichi DR-1 > Benchmark ADC-1 > AES > Sound Devices 722 > 24/96 WAV
Taped by: B. Glassberg
Transfer by: A. Egert
Mastering by: J. Waddell

Set I
d1t01 - Tuning
d1t02 - The Promised Land
d1t03 - They Love Each Other
d1t04 - Mama Tried >
d1t05 - Mexicali Blues
d1t06 - Brown Eyed Women
d1t07 - It's All Over Now
d1t08 - Row Jimmy
d2t01 - El Paso
d2t02 - Stagger Lee
d2t03 - Lazy Lightnin' >
d2t04 - Supplication >
d2t05 - Deal

Set II
d3t01 - Scarlet Begonias >
d3t02 - Fire On The Mountain
d3t03 - Samson And Delilah
d3t04 - Terrapin Station >
d4t01 - Playing In The Band >
d4t02 - Drums >
d4t03 - Space >
d4t04 - The Other One >
d4t05 - China Doll >
d4t06 - Playing In The Band >
d4t07 - Good Lovin'

Encore:
d4t08 - Shakedown//Street

Notes:
-- Edited and Remastered by Jamie Waddell on the GEMS Edit Station.
-- Due to editing compression, crowd is reduced between tracks in a tasteful manner.



FLAC FINGERPRINTS:
gd1979-05-08.motb.0028.d1t01.flac:c18f0aa4dc75c7be240937dd5c068852
gd1979-05-08.motb.0028.d1t02.flac:b736a39a0f1f39a7ce0b0d937dd339e4
gd1979-05-08.motb.0028.d1t03.flac:4fa7b461110402f4f50980d013b33a8e
gd1979-05-08.motb.0028.d1t04.flac:5962d1e4ae0bf16e6c9a79dabeb5b44c
gd1979-05-08.motb.0028.d1t05.flac:e795d2e310428bfafb0616c35b528cba
gd1979-05-08.motb.0028.d1t06.flac:c2aa2b3e66b3161c03e669df0c77f716
gd1979-05-08.motb.0028.d1t07.flac:d5b5968ddbc6b6ad00d81694d43c9255
gd1979-05-08.motb.0028.d1t08.flac:1fbc587218a0ac227e2a24c0427bc77e
gd1979-05-08.motb.0028.d2t01.flac:f49611ed1670a9fdc799ad1033d890db
gd1979-05-08.motb.0028.d2t02.flac:0e32eb5ec1233efef5c41ecf9312028c
gd1979-05-08.motb.0028.d2t03.flac:4f8679163cb4bb807965bc64bb6175e7
gd1979-05-08.motb.0028.d2t04.flac:8fd32ca716cd39b2ace27325daffcccd
gd1979-05-08.motb.0028.d2t05.flac:0558be57952ee16c241b1ff46e71ca49
gd1979-05-08.motb.0028.d3t01.flac:6461ba92be25e5f7e14db493842eb5b6
gd1979-05-08.motb.0028.d3t02.flac:7f26c3f90d9890ea1aad194fb13aa1c9
gd1979-05-08.motb.0028.d3t03.flac:7b2a6b7187e3429bafb1b344fe6aa0cd
gd1979-05-08.motb.0028.d3t04.flac:3617c27b4288db645cdb1985538a1854
gd1979-05-08.motb.0028.d4t01.flac:40fd0bf4146c80d32478f2036a522ede
gd1979-05-08.motb.0028.d4t02.flac:735711a272cff9ad6d5a843ab3e95b27
gd1979-05-08.motb.0028.d4t03.flac:4710e24a02aab6f3492c45c8ae1407d2
gd1979-05-08.motb.0028.d4t04.flac:631fb3d3ca1685687ebefee48bafa2fa
gd1979-05-08.motb.0028.d4t05.flac:dbec5928d2032953cd3fafd0fd00a7ce
gd1979-05-08.motb.0028.d4t06.flac:ca4a45ef42860365cfbba1f0e86abd4b
gd1979-05-08.motb.0028.d4t07.flac:c507727fb5e343674a95d83d87d4cb9a
gd1979-05-08.motb.0028.d4t08.flac:b0ad749a041e5b9d63afc8c494079b84

MD5 CHECKSUMS:
6670ee354fd80b59bfea228cbd9983b1 *gd1979-05-08.motb.0028.d1t01.flac
697699424fb9304be3c8b5d17bfc07ac *gd1979-05-08.motb.0028.d1t02.flac
f97db7f8b2e92ff913d4b858cb2a0f49 *gd1979-05-08.motb.0028.d1t03.flac
f8b19e6df4610d4acecf5cc02e397d5b *gd1979-05-08.motb.0028.d1t04.flac
79daab28bc4d0f7073ef189483533b9f *gd1979-05-08.motb.0028.d1t05.flac
c8814a6b9df1952c9fed4ed708d83e7d *gd1979-05-08.motb.0028.d1t06.flac
ba9ad5fef6b6ccaf4f8349f3af838302 *gd1979-05-08.motb.0028.d1t07.flac
74a074330ab6d432b2c4c9b749c202b3 *gd1979-05-08.motb.0028.d1t08.flac
65593064075a04ab36a5017070a7a365 *gd1979-05-08.motb.0028.d2t01.flac
19b2b02135620d609a8e78d246cfa69b *gd1979-05-08.motb.0028.d2t02.flac
84a71c5b4ea05dd0c1ed5594deea8087 *gd1979-05-08.motb.0028.d2t03.flac
b49ed47ee0eadacc58b68de6f3efae0c *gd1979-05-08.motb.0028.d2t04.flac
e052ac9e1ecf6646d191ac61f866df7a *gd1979-05-08.motb.0028.d2t05.flac
9602ea753644e025af46c5234b7e96bc *gd1979-05-08.motb.0028.d3t01.flac
9732114ca649b04066fcc5a9bf226976 *gd1979-05-08.motb.0028.d3t02.flac
319c033b75638c1d386171512605df28 *gd1979-05-08.motb.0028.d3t03.flac
aec1c322e3bcf53b6b1890c215e8d0af *gd1979-05-08.motb.0028.d3t04.flac
a5c5f422a6c4e456ef053cfb7da18517 *gd1979-05-08.motb.0028.d4t01.flac
c1ca2efe31b29c50d7f0a70bbdffb23c *gd1979-05-08.motb.0028.d4t02.flac
1b9616a790b69d5ddd2d331924389922 *gd1979-05-08.motb.0028.d4t03.flac
e95003708d9d504839de9d435d19ef11 *gd1979-05-08.motb.0028.d4t04.flac
a3250c730928532bdca4c5ce58f07322 *gd1979-05-08.motb.0028.d4t05.flac
7253128aa783e2383a98abda3299cba5 *gd1979-05-08.motb.0028.d4t06.flac
aec9d191dbf0db51fdbe93b4a82a0c48 *gd1979-05-08.motb.0028.d4t07.flac
ffec4f1ee58848653e447ff5a280f118 *gd1979-05-08.motb.0028.d4t08.flac

SHNTOOL OUTPUT:
    length     expanded size   cdr  WAVE problems filename
     2:18.10       24366764    ---   --   ---xx   gd1979-05-08.motb.0028.d1t01.flac
     5:53.57       62403308    ---   --   ---xx   gd1979-05-08.motb.0028.d1t02.flac
     8:20.63       88348220    ---   --   ---xx   gd1979-05-08.motb.0028.d1t03.flac
     2:58.57       31533308    ---   --   ---xx   gd1979-05-08.motb.0028.d1t04.flac
     5:17.14       55951772    ---   --   ---xx   gd1979-05-08.motb.0028.d1t05.flac
     6:51.18       72542780    ---   --   ---xx   gd1979-05-08.motb.0028.d1t06.flac
     9:28.24      100251692    ---   --   ---xx   gd1979-05-08.motb.0028.d1t07.flac
    12:30.27      132363548    ---   --   ---xx   gd1979-05-08.motb.0028.d1t08.flac
     5:26.58       57642860    ---   --   ---xx   gd1979-05-08.motb.0028.d2t01.flac
     9:01.00       95432444    ---   --   ---xx   gd1979-05-08.motb.0028.d2t02.flac
     3:54.09       41298812    ---   --   ---xx   gd1979-05-08.motb.0028.d2t03.flac
     7:32.69       79895132    ---   --   ---xx   gd1979-05-08.motb.0028.d2t04.flac
     6:38.09       70228412    ---   --   ---xx   gd1979-05-08.motb.0028.d2t05.flac
    14:00.32      148251308    ---   --   ---xx   gd1979-05-08.motb.0028.d3t01.flac
    13:20.73      141291740    ---   --   ---xx   gd1979-05-08.motb.0028.d3t02.flac
     9:07.44       96594332    ---   --   ---xx   gd1979-05-08.motb.0028.d3t03.flac
    12:39.39      133979372    ---   --   ---xx   gd1979-05-08.motb.0028.d3t04.flac
    12:10.58      128908460    ---   --   ---xx   gd1979-05-08.motb.0028.d4t01.flac
    12:44.38      134859020    ---   --   ---xx   gd1979-05-08.motb.0028.d4t02.flac
     8:11.59       86751212    ---   --   ---xx   gd1979-05-08.motb.0028.d4t03.flac
    10:34.00      111837644    ---   --   ---xx   gd1979-05-08.motb.0028.d4t04.flac
     6:44.65       71418524    ---   --   ---xx   gd1979-05-08.motb.0028.d4t05.flac
     4:31.05       47816204    ---   --   ---xx   gd1979-05-08.motb.0028.d4t06.flac
     7:07.19       75367532    ---   --   ---xx   gd1979-05-08.motb.0028.d4t07.flac
    11:50.20      125291084    ---   --   ---xx   gd1979-05-08.motb.0028.d4t08.flac
   209:14.42     2214625484 B                     (totals for 25 files, 0.6394 overall compression ratio)





More information about the bittorrent mailing list