[bittorrent] gd72-08-24.sbd.miller.18093.sbeok.shnf

Automated Mailer noreply-bt.e at etree.org
Fri Oct 5 17:13:13 MDT 2007


Band:           Grateful Dead
Torrent Name:   gd72-08-24.sbd.miller.18093.sbeok.shnf 
Uploaded by:    tigerbolt
DB Link:        http://db.etree.org/lookup_show.php?shows_key=788
Details:        http://bt.etree.org/details.php?id=510014

Contact the seeder at http://db.etree.org/tigerbolt

If the link to this show does not work, it was probably removed for
being non-trade-friendly.

Description / text file:
-------------------------
8/24/72 - Grateful Dead
Berkeley Community Theatre
Berkeley, CA

Recording Info:
SBD>Rm>Dat(48k)

Transfer Info:
Dat(Sony 500)>Prodif Plus>Samplitude v6.0>SHN

Notes:
Sugar Magnolia, Ramble On Rose And Greatest Story Ever Told
Patched From SBD>Rm>Cass>Cass>Cass>Dat>Samplitude>SHN

All transfers (including the patch) were done by Charlie Miller
charliemiller87 at earthlink.net
6/12/03

Set 1:
d1t01 - Promised Land
d1t02 - Sugaree
d1t03 - Jack Straw
d1t04 - China Cat Sunflower ->
d1t05 - I Know You Rider
d1t06 - Me And My Uncle
d1t07 - Bird Song
d1t08 - Beat It On Down The Line
d1t09 - Tennessee Jed
d1t10 - Playing In The Band
d2t01 - Casey Jones

Set 2:
d2t02 - Mississippi Half-Step Uptown Toodeloo
d2t03 - Mexicali Blues
d2t04 - Brown Eyed Women
d2t05 - Truckin'
d2t06 - Dark Star ->
d2t07 - Morning Dew
d3t01 - Sugar Magnolia
d3t02 - Ramble On Rose
d3t03 - Greatest Story Ever Told
d3t04 - Sing Me Back Home
d3t05 - One More Saturday Night

Encore:
d3t06 - Uncle John's Band


5f51af453547adeb8cb947b85b909bff *gd72-08-24d1t01.shn
b28f3e78af16b980fb760066c323d08b *gd72-08-24d1t02.shn
e0af5e5b5dde8902ee0029b467d031ea *gd72-08-24d1t03.shn
bd1461118545482c60dff9f5f540949d *gd72-08-24d1t04.shn
26a1654211b042dc51af3a0243439e6e *gd72-08-24d1t05.shn
e88debef74aeb7604e0508377199c3fc *gd72-08-24d1t06.shn
35d6a8f3a98cd8639123a802e6aa4d4b *gd72-08-24d1t07.shn
be56fdc650facfdb38faa0c3d8762d4e *gd72-08-24d1t08.shn
639f7f9d9991af637c12f5a99c3cc7cd *gd72-08-24d1t09.shn
5aa293d0bc5c0f85ef700a9ff91ea27e *gd72-08-24d1t10.shn
e6e3fada25f2e4e49b55b0b40d2cb43b *gd72-08-24d2t01.shn
121185ee12ae9ff821ac80aac9356465 *gd72-08-24d2t02.shn
506d5ffe3fb8673ced010b1aab1fabc0 *gd72-08-24d2t03.shn
43017ec31826d4d86f28f3a0fd7449ed *gd72-08-24d2t04.shn
91bf3d0e777ad75e4b00231310c2c43e *gd72-08-24d2t05.shn
6f4ffe2b672e00391a9d43d0802285a1 *gd72-08-24d2t06.shn
fb562cf32594dfbce7a63e93ee5851db *gd72-08-24d2t07.shn
e5a01cf34f43caa08ac976175fdfd99b *gd72-08-24d3t01.shn
678605a337fe58f4e8c464dbbcd6a8a9 *gd72-08-24d3t02.shn
42857b399ecfe18d78d3b8cbfd256a90 *gd72-08-24d3t03.shn
c7e92d41b118ce4edca80c5fbd489941 *gd72-08-24d3t04.shn
036af4cdf5421a5e12a233f77dbba9f4 *gd72-08-24d3t05.shn
bbeba94a488f94f07e4c422bac312956 *gd72-08-24d3t06.shn


length     expanded size   cdr  WAVE problems filename
     4:02.21       42738236    ---   --   ---xx   gd72-08-24d1t01.shn
     8:13.67       87122828    ---   --   ---xx   gd72-08-24d1t02.shn
     6:35.54       69805052    ---   --   ---xx   gd72-08-24d1t03.shn
     6:47.02       71799548    ---   --   ---xx   gd72-08-24d1t04.shn
     7:58.32       84394508    ---   --   ---xx   gd72-08-24d1t05.shn
     3:47.45       40148684    ---   --   ---xx   gd72-08-24d1t06.shn
    10:29.17      110995628    ---   --   ---xx   gd72-08-24d1t07.shn
     4:40.32       49467308    ---   --   ---xx   gd72-08-24d1t08.shn
    10:07.59      107213612    ---   --   ---xx   gd72-08-24d1t09.shn
    15:40.05      165827804    ---   --   ---xx   gd72-08-24d1t10.shn
     6:51.02       72505148    ---   --   ---xx   gd72-08-24d2t01.shn
     9:13.34       97629212    ---   --   ---xx   gd72-08-24d2t02.shn
     3:51.12       40776668    ---   --   ---xx   gd72-08-24d2t03.shn
     6:46.04       71627852    ---   --   ---xx   gd72-08-24d2t04.shn
    11:07.08      117677660    ---   --   ---xx   gd72-08-24d2t05.shn
    27:08.65      287332124    ---   --   ---xx   gd72-08-24d2t06.shn
    13:43.55      145306604    ---   --   ---xx   gd72-08-24d2t07.shn
     8:23.34       88809212    ---   --   ---xx   gd72-08-24d3t01.shn
     7:03.47       74727788    ---   --   ---xx   gd72-08-24d3t02.shn
     5:31.28       58454300    ---   --   ---xx   gd72-08-24d3t03.shn
    10:09.10      107451164    ---   --   ---xx   gd72-08-24d3t04.shn
     5:51.05       61928204    ---   --   ---xx   gd72-08-24d3t05.shn
     7:21.71       77959436    ---   --   ---xx   gd72-08-24d3t06.shn
   201:24.34     2131698580 B                     (totals for 23 files, 0.5408 overall compression ratio)



More information about the bittorrent mailing list