[bittorrent] Widespead Panic 2007-10-03 Hult Center * Eugene, OR

Automated Mailer noreply-bt.e at etree.org
Thu Oct 4 16:52:51 MDT 2007


Band:           Widespread Panic
Torrent Name:   Widespead Panic 2007-10-03 Hult Center * Eugene, OR
Uploaded by:    cfox
DB Link:        
Details:        http://bt.etree.org/details.php?id=509985

Contact the seeder at http://db.etree.org/cfox

If the link to this show does not work, it was probably removed for
being non-trade-friendly.

Description / text file:
-------------------------
Widespread Panic
Hult Center
Eugene, OR
2007-10-03

source: Schoeps mk4v(dina)~>kcy~>vms5u~>744t (24/96)
location: fob/dfc
dsp: 744t~>cdwave~>wavelab5~>flac(8)
recorded & seeded: charles fox

01 Intro
02 Jam >
03 Driving Song >
04 Disco >
05 Driving Song >
06 Good People
07 Glory
08 Weak Brain, Narrow Mind
09 Little Lilly >
10 Blight >
11 You Should Be Glad

set 2 disc 2
01 Jam >
02 North
03 Smokestack Lightning >
04 Conrad
05 Sleepy Monkey
06 Tall Boy  >
07 Rebirtha >
08 Drums 

set 2 disc 3
01 Papa Legba
02 Space Wrangler
Encore 
03 Red Hot Mama

ffp
wsp2007-10-03d1t01.flac:7d9a2a87d526d79a37dc07d8a9b579cf
wsp2007-10-03d1t02.flac:9ad7663aee849ccf1b1987822f6c5f08
wsp2007-10-03d1t03.flac:a9140c2ca285ce0c1e951ccd48b7167e
wsp2007-10-03d1t04.flac:fc4b507d65a0d4932f723f1edd588c26
wsp2007-10-03d1t05.flac:14534744fcc413054147787a0cadeb1f
wsp2007-10-03d1t06.flac:28d12725a1bba4c857a3941956483a6c
wsp2007-10-03d1t07.flac:b31e55c20137e780cbd2bd26b07bb834
wsp2007-10-03d1t08.flac:18acdb44387730d29ad1fdb24b4aaaa2
wsp2007-10-03d1t09.flac:28308837912a66a53ff0a4aa653b8208
wsp2007-10-03d1t10.flac:0b5ec10b6a1fb2f00cbaec14e05eedfd
wsp2007-10-03d1t11.flac:fe645f31edbf97daa8e3161577211c38
wsp2007-10-03d2t01.flac:487f04261d9473fd141e90960e8ee733
wsp2007-10-03d2t02.flac:9e3d7ea9709df520fbb6a6d5afb7face
wsp2007-10-03d2t03.flac:a0dded4d272c1b70860579a6ab118ee1
wsp2007-10-03d2t04.flac:ddfe3a501aeb13caede2dae3716e825a
wsp2007-10-03d2t05.flac:eeafa2ef4412aa250e1085f961846615
wsp2007-10-03d2t06.flac:33a3545271c07b3dd0b91f95a709fca7
wsp2007-10-03d2t07.flac:c8267e8fb83fa99ed3750a0da2a7bba8
wsp2007-10-03d2t08.flac:8f92a181f878d1f3bf7914918c28eef5
wsp2007-10-03d3t01.flac:45d8b8fdb66b2798748e4fd9037cd2ef
wsp2007-10-03d3t02.flac:615babe0929ef70a7c246d49a6293ab8
wsp2007-10-03d3t03.flac:0cec777f3284a7bd3a7f095a27cec5fc

shntool
    length     expanded size   cdr  WAVE problems filename
     0:27.25        4821644    ---   --   ---xx   wsp2007-10-03d1t01.flac
     5:18.01       56097596    ---   --   ---xx   wsp2007-10-03d1t02.flac
     4:48.73       50974940    ---   --   ---xx   wsp2007-10-03d1t03.flac
     9:25.17       99706028    ---   --   ---xx   wsp2007-10-03d1t04.flac
     3:24.03       35992700    ---   --   ---xx   wsp2007-10-03d1t05.flac
     8:21.45       88482284    ---   --   ---xx   wsp2007-10-03d1t06.flac
     5:18.09       56116412    ---   --   ---xx   wsp2007-10-03d1t07.flac
     6:24.74       67911692    ---   --   ---xx   wsp2007-10-03d1t08.flac
     7:26.02       78679148    ---   --   ---xx   wsp2007-10-03d1t09.flac
     7:29.29       79271852    ---   --   ---xx   wsp2007-10-03d1t10.flac
    13:17.51      140710796    ---   --   ---xx   wsp2007-10-03d1t11.flac
     3:39.08       38650460    ---   --   ---xx   wsp2007-10-03d2t01.flac
    11:37.63      123099020    ---   --   ---xx   wsp2007-10-03d2t02.flac
    10:56.63      115866620    ---   --   ---xx   wsp2007-10-03d2t03.flac
    10:57.18      115937180    ---   --   ---xx   wsp2007-10-03d2t04.flac
    10:20.74      109542092    ---   --   ---xx   wsp2007-10-03d2t05.flac
     9:43.38      102930620    ---   --   ---xx   wsp2007-10-03d2t06.flac
     8:39.17       91591628    ---   --   ---xx   wsp2007-10-03d2t07.flac
     6:59.34       73991612    ---   --   ---xx   wsp2007-10-03d2t08.flac
     8:01.18       84890780    ---   --   ---xx   wsp2007-10-03d3t01.flac
    12:01.02      127189148    ---   --   ---xx   wsp2007-10-03d3t02.flac
     9:42.26      102725996    ---   --   ---xx   wsp2007-10-03d3t03.flac
   174:20.15     1845180248 B                     (totals for 22 files, 0.5632 overall compression ratio)




More information about the bittorrent mailing list