[bittorrent] Widespread Panic 2007-10-02 Memorial Coliseum * Portland, OR

Automated Mailer noreply-bt.e at etree.org
Wed Oct 3 15:35:21 MDT 2007


Band:           Widespread Panic
Torrent Name:   Widespread Panic 2007-10-02 Memorial Coliseum * Portland, OR
Uploaded by:    cfox
DB Link:        
Details:        http://bt.etree.org/details.php?id=509959

Contact the seeder at http://db.etree.org/cfox

If the link to this show does not work, it was probably removed for
being non-trade-friendly.

Description / text file:
-------------------------
Widespread Panic
Memorial Coliseum
Portland, OR
2007-10-02

source: Schoeps mk41v(dina)~>kc5~>m222~>nt222 + mk4v/mk8(mid-side)~>kcy~>vms5u~>744t (24/96)
location: fob/dfc
dsp: 744t~>wavelab5~>cdwave~>wavelab5~>flac(8)
recorded & seeded: charles fox

set 1 disc 1
01 Intro
02 Chilly Water > 
03 Imitation Leather Shoes >
04 Chilly Water
05 Tortured Artist 
06 Fishwater
07 Smoking Factory >
08 Hatfield
09 Fixin To Die

set 2 disc 2
01 Intro
02 Junior
03 A of D
04 Flicker
05 Me and the Devil Blues
06 You Got Yours* >
07 Road to Damascus* >
08 Surprise Valley >
09 Arlene >
10 Drums >
11 Surprise Valley
12 Walkin' (For your Love)

set 2 disc 3
Encore 
01 May Your Glass Be Filled
02 Henry Parsons Died

*w/ Jerry Joseph

ffp
wsp2007-10-02d1t01.flac:8a550e396fd9faafa13c35172efa3be9
wsp2007-10-02d1t02.flac:0ad6d47a5bb05a875891a24a00d44a49
wsp2007-10-02d1t03.flac:37407c46231bf609851d22f01ea678e8
wsp2007-10-02d1t04.flac:bdafa4c3cefadcda128e3845413bdf79
wsp2007-10-02d1t05.flac:6495aec3471aeee0edce05da0282d2cc
wsp2007-10-02d1t06.flac:b83dd84c1a2bce589c9ddfd1387089c4
wsp2007-10-02d1t07.flac:693da46626576cd821bca8377cadf375
wsp2007-10-02d1t08.flac:e06c07d991b33a99fbc17e3c1229dad5
wsp2007-10-02d1t09.flac:f0386adf88bd2d7819b0b6d2c5b19e0b
wsp2007-10-02d2t01.flac:1261c375a4f3bd26ac2fd7837c5011cd
wsp2007-10-02d2t02.flac:647bf7ee57b09f80e8d6a8081e08ec12
wsp2007-10-02d2t03.flac:c4c780f874d911b81817546fff2045e1
wsp2007-10-02d2t04.flac:ed458b02647360fae01817a1eeafaa39
wsp2007-10-02d2t05.flac:c2ef073d6ab77cb7576077b45df3aed6
wsp2007-10-02d2t06.flac:f3f342b38f6c1aa80ab216d37763cfdd
wsp2007-10-02d2t07.flac:287bdaee5318808a641861cbe257abe7
wsp2007-10-02d2t08.flac:a8dd810eb9d0c814cdb9b303779c9d03
wsp2007-10-02d2t09.flac:e541cf01dee1cb3c42e697c57381b14d
wsp2007-10-02d2t10.flac:d4f24cd927a026271a9115da688c7915
wsp2007-10-02d2t11.flac:1e581f771c0136f08897e7f9abe8f06c
wsp2007-10-02d2t12.flac:2e07ec8f8dfe4a8a9751351edfa99eae
wsp2007-10-02d3t01.flac:b2100fd68779e941204d2266ed20d580
wsp2007-10-02d3t02.flac:7fc8ab0038ed8f42d1b55bd2004d3677

shntool
    length     expanded size   cdr  WAVE problems filename
     1:09.17       12211628    ---   --   ---xx   wsp2007-10-02d1t01.flac
     5:02.63       53421020    ---   --   ---xx   wsp2007-10-02d1t02.flac
     3:45.06       39704156    ---   --   ---xx   wsp2007-10-02d1t03.flac
     4:56.74       52388492    ---   --   ---xx   wsp2007-10-02d1t04.flac
     7:08.69       75661532    ---   --   ---xx   wsp2007-10-02d1t05.flac
    11:17.02      119427548    ---   --   ---xx   wsp2007-10-02d1t06.flac
    13:02.09      137966012    ---   --   ---xx   wsp2007-10-02d1t07.flac
    13:01.08      137787260    ---   --   ---xx   wsp2007-10-02d1t08.flac
     7:57.17       84182828    ---   --   ---xx   wsp2007-10-02d1t09.flac
     1:08.55       12124604    ---   --   ---xx   wsp2007-10-02d2t01.flac
     6:41.29       70804652    ---   --   ---xx   wsp2007-10-02d2t02.flac
     3:06.66       32965676    ---   --   ---xx   wsp2007-10-02d2t03.flac
     4:57.14       52423772    ---   --   ---xx   wsp2007-10-02d2t04.flac
     7:54.32       83688908    ---   --   ---xx   wsp2007-10-02d2t05.flac
     7:52.32       83336108    ---   --   ---xx   wsp2007-10-02d2t06.flac
    11:27.35      121269164    ---   --   ---xx   wsp2007-10-02d2t07.flac
     5:52.10       62116364    ---   --   ---xx   wsp2007-10-02d2t08.flac
     9:21.04       98969852    ---   --   ---xx   wsp2007-10-02d2t09.flac
     2:34.48       27278540    ---   --   ---xx   wsp2007-10-02d2t10.flac
     5:24.66       57308876    ---   --   ---xx   wsp2007-10-02d2t11.flac
     8:31.23       90194540    ---   --   ---xx   wsp2007-10-02d2t12.flac
     5:09.25       54566444    ---   --   ---xx   wsp2007-10-02d3t01.flac
     7:37.72       80784188    ---   --   ---xx   wsp2007-10-02d3t02.flac
   155:00.26     1640582164 B                     (totals for 23 files, 0.5306 overall compression ratio)




More information about the bittorrent mailing list