[bittorrent] The Flaming Lips 2006-05-02 Stockholm FM w/fixed tracking

Automated Mailer noreply-bt.e at etree.org
Wed Oct 3 11:29:02 MDT 2007


Band:           Other
Torrent Name:   The Flaming Lips 2006-05-02 Stockholm FM w/fixed tracking
Uploaded by:    StCarl
DB Link:        tba
Details:        http://bt.etree.org/details.php?id=509955

Contact the seeder at http://db.etree.org/StCarl

If the link to this show does not work, it was probably removed for
being non-trade-friendly.

Description / text file:
-------------------------
The Flaming Lips
Cirkus, Stockholm, Sweden
2006 MAY 02

SBD [FM Broadcast] > Denon DRA-455 > UA-25 > WAV [tracking fixed]
(see Notes for info)


01 Intro
02 Race For The Prize
03 Free Radicals
04 Yoshimi Battles The Pink Robots Part 1
05 Vein Of Stars
06 The Yeah Yeah Yeah Song
07 In The Morning Of The Magicians
08 The W.A.N.D. (The Will Always Negates Defeat)
09 The Spark That Bled
10 Do You Realize??
11 War Pigs


Notes:
Files obtained via the interweb thanks to the usual weirdos
Source listed as received: SBD > Denon DRA-455 > UA-25 > wav

Retracked with love by StCarl on 2007 SEPT 25
*fixed end of Yoshimi and intro to Vein Of Stars that were one 30 sec track 
*tracking fixed so Wayne's dialog is heard with the songs it should be

Retracking done in Felt Tip Sound Studio 3.5.4
FLAC>WAV, WAV joining, and WAV>FLAC conversions via xACT 1.5.5

No additional alteration was performed on these lossless files as received.
Recirculated via FurthurNET 2007 SEPT 27


    length     expanded size   cdr  WAVE problems filename
     2:26.50       25872044    ---   --   ---xx   fl2006-05-02d1t01.flac
     5:38.38       59712620    ---   --   ---xx   fl2006-05-02d1t02.flac
     3:54.70       41442284    ---   --   ---xx   fl2006-05-02d1t03.flac
     5:33.03       58748300    ---   --   ---xx   fl2006-05-02d1t04.flac
     4:32.30       48051404    ---   --   ---xx   fl2006-05-02d1t05.flac
     7:44.70       82014284    ---   --   ---xx   fl2006-05-02d1t06.flac
     6:31.01       68974796    ---   --   ---xx   fl2006-05-02d1t07.flac
     4:00.15       42371324    ---   --   ---xx   fl2006-05-02d1t08.flac
     5:49.17       61603628    ---   --   ---xx   fl2006-05-02d1t09.flac
     3:42.30       39231404    ---   --   ---xx   fl2006-05-02d1t10.flac
     5:00.31       52992956    ---   --   ---xx   fl2006-05-02d1t11.flac
    54:53.55      581015044 B                     (totals for 11 files, 0.6932 overall compression ratio)

fl2006-05-02d1t01.flac:0696b773c48641971cebcb7e8571cad7
fl2006-05-02d1t02.flac:31145d0a5f15b87dc7e5f407880c9fc7
fl2006-05-02d1t03.flac:76a3683572f8718a0d6c37b96bbd001c
fl2006-05-02d1t04.flac:5008db468c129ded51b1f39efdebb5ab
fl2006-05-02d1t05.flac:48a83090b3f6e20fb7ac0878163ab4e0
fl2006-05-02d1t06.flac:84efa6bfeb32df368aaee457384a2d18
fl2006-05-02d1t07.flac:40481d9b9f23305dd9b0c9808bf6213c
fl2006-05-02d1t08.flac:3dd23a71189087d61d66d76c0427714a
fl2006-05-02d1t09.flac:47422ac51216270a45ac093156bd3553
fl2006-05-02d1t10.flac:5b96b6d456bd17108c8a68b7e5f0460e
fl2006-05-02d1t11.flac:7ba69c563f730d4b1d399d05c2ec994e




More information about the bittorrent mailing list