[bittorrent] Sound Tribe Sector 9 @ 2/11/2006 HOB Chicago, IL

Automated Mailer noreply-bt.e at etree.org
Wed Oct 3 05:31:54 MDT 2007


Band:           Sound Tribe Sector 9
Torrent Name:   Sound Tribe Sector 9 @ 2/11/2006  HOB Chicago, IL
Uploaded by:    tedgerto
DB Link:        
Details:        http://bt.etree.org/details.php?id=509946

Contact the seeder at http://db.etree.org/tedgerto

If the link to this show does not work, it was probably removed for
being non-trade-friendly.

Description / text file:
-------------------------
Sound Tribe Sector 9
February 11th, 2006
House Of Blues
Chicago, IL

Source: AKGck1x > mk46 > 460 (stock) > Edirol UA5 (Oade digimod) > Sony D8 
Location: DC, FOB, 9' high, ORTF
Transfer: R500 > VXPocket > Wavelab (fades/tracking) > FLAC (lvl 6)
Taped by Chris Grider, transferred by Todd (titotito at gmail)

Set 1/Disc 1:
01. Intro
02. Arigato > 
03. Blu Mood
04. Ramone and Emiglio
05. Crystal Instrument
06. Be Nice
07. Inspire Strikes Back
08. One a Day
  
Set 2/Disc 2:
01. This Us
02. Lo Swaga
03. Moon Socket
04. Pianoir
05. Move my Peeps
06. GLOgli
07. Open E  
Encore: 
08. ReEmergence
09. Kamuy

Files tagged with Tag&FLAC 3.1.7

FLAC Fingerprint:

sts9-2006-02-11d1t01_Intro.flac:5f74467f1ff5dde2ea6d96756c46233b
sts9-2006-02-11d1t02_Arigato_.flac:8bd0cc81f25fd9d7ae1b99c07cb43f5b
sts9-2006-02-11d1t03_Blu_Mood.flac:53104679b6eaa605d04a636be012738c
sts9-2006-02-11d1t04_Ramone_and_Emiglio.flac:d6ba5f1e121dda9891321a03437f05cb
sts9-2006-02-11d1t05_Crystal_Instrument.flac:574a20b83b19a6fb4b633f8ff970565b
sts9-2006-02-11d1t06_Be_Nice.flac:8639b226952827bf8cec12a45ea047b1
sts9-2006-02-11d1t07_Inspire_Strikes_Back.flac:ed6c6c59f835f85384cd7b970afea1a6
sts9-2006-02-11d1t08_One_a_Day.flac:ff6e5806291ac6271a659d55f928f4b4
sts9-2006-02-11d2t01_This_Us.flac:57e2178e1bafb25df3285da2fd4fa74a
sts9-2006-02-11d2t02_Lo_Swaga.flac:5efb0d8d9b73d6b9c4b21cd83c70c5f3
sts9-2006-02-11d2t03_Moon_Socket.flac:89bd703f56a5b989019ca5966b54f335
sts9-2006-02-11d2t04_Pianoir.flac:35b0e276b5baf833ad2ed45ce3cd0411
sts9-2006-02-11d2t05_Move_my_Peeps.flac:5b175fd387312f779c897a346b685dce
sts9-2006-02-11d2t06_GLOgli.flac:c19473bf05d2dd6b29ce7ea027bd86e8
sts9-2006-02-11d3t01_Open_E.flac:d5972456ba85d9603e6b42d2549fea28
sts9-2006-02-11d3t02_ReEmergence.flac:23025ab1aa1b7cf0eec2288682728c3e
sts9-2006-02-11d3t03_Kamuy.flac:5189451219c1d5bd3862bf324c431a80

SHNTool Output:

    length     expanded size   cdr  WAVE problems filename
     1:03.40       11207324    ---   --   ---xx   sts9-2006-02-11d1t01_Intro.flac
     8:42.40       92174924    ---   --   ---xx   sts9-2006-02-11d1t02_Arigato_.flac
     8:24.66       89060876    ---   --   ---xx   sts9-2006-02-11d1t03_Blu_Mood.flac
    14:30.37      153555068    ---   --   ---xx   sts9-2006-02-11d1t04_Ramone_and_Emiglio.flac
     8:42.40       92174924    ---   --   ---xx   sts9-2006-02-11d1t05_Crystal_Instrument.flac
     5:35.46       59202236    ---   --   ---xx   sts9-2006-02-11d1t06_Be_Nice.flac
     9:57.21      105360236    ---   --   ---xx   sts9-2006-02-11d1t07_Inspire_Strikes_Back.flac
     7:48.08       82574060    ---   --   ---xx   sts9-2006-02-11d1t08_One_a_Day.flac
     4:27.35       47181164    ---   --   ---xx   sts9-2006-02-11d2t01_This_Us.flac
     8:21.43       88477580    ---   --   ---xx   sts9-2006-02-11d2t02_Lo_Swaga.flac
    17:13.43      182322380    ---   --   ---xx   sts9-2006-02-11d2t03_Moon_Socket.flac
     8:10.13       86466620    ---   --   ---xx   sts9-2006-02-11d2t04_Pianoir.flac
    14:13.74      150643292    ---   --   ---xx   sts9-2006-02-11d2t05_Move_my_Peeps.flac
     9:54.60      104922764    ---   --   ---xx   sts9-2006-02-11d2t06_GLOgli.flac
    11:07.63      117807020    ---   --   ---xx   sts9-2006-02-11d3t01_Open_E.flac
    10:07.16      107112476    ---   --   ---xx   sts9-2006-02-11d3t02_ReEmergence.flac
    10:23.31      109970156    ---   --   ---xx   sts9-2006-02-11d3t03_Kamuy.flac
   158:45.01     1680213100 B                     (totals for 17 files, 0.5402 overall compression ratio)



More information about the bittorrent mailing list