[bittorrent] 10/11/77 Lloyd Noble Center - Norman, OK University of Oklahoma [New C. Miller Upgrade SBD-87514]

Automated Mailer noreply-bt.e at etree.org
Tue Oct 2 19:18:55 MDT 2007


Band:           Grateful Dead
Torrent Name:   10/11/77 Lloyd Noble Center - Norman, OK University of Oklahoma [New C. Miller Upgrade SBD-87514]
Uploaded by:    mayormarionbarry
DB Link:        http://db.etree.org/shninfo_detail.php?shnid=87514
Details:        http://bt.etree.org/details.php?id=509940

Contact the seeder at http://db.etree.org/mayormarionbarry

If the link to this show does not work, it was probably removed for
being non-trade-friendly.

Description / text file:
-------------------------
Grateful Dead - October 11, 1977
Lloyd Noble Center - Norman, OK
University of Oklahoma

Recording Info:
SBD -> Master Reel -> Dat (44.1k)

Transfer Info:
Dat (Sony D8) -> Samplitude Professional v9.11 -> FLAC
(3 Discs Audio / 2 Discs FLAC)

All Transfers and Mastering By Charlie Miller
charliemiller87 at earthlink.net
October 1, 2007

Notes:
-- Set 2 is seamless
-- Some flaws in Not Fade Away still exist

Set 1:
d1t01 - Help On The Way ->
d1t02 - Slipknot! ->
d1t03 - Franklin's Tower
d1t04 - Jack Straw
d1t05 - Peggy-O
d1t06 - El Paso
d1t07 - Sunrise
d1t08 - Deal
d1t09 - Let It Grow

Set 2:
d2t01 - Dancing In The Street
d2t02 - Dire Wolf
d2t03 - Estimated Prophet ->
d2t04 - Eyes Of The World ->
d2t05 - Drums ->
d3t01 - Not Fade Away ->
d3t02 - Wharf Rat ->
d3t03-  Around And Around


SHNTOOL OUTPUT:
    length    expanded size  cdr  WAVE problems filename
    5:55.53      62746700    ---  --  -----  gd77-10-11d1t01.wav
    4:02.10      42712364    ---  --  -----  gd77-10-11d1t02.wav
    15:10.47      160634588    ---  --  -----  gd77-10-11d1t03.wav
    5:30.44      58315532    ---  --  -----  gd77-10-11d1t04.wav
    7:37.37      80701868    ---  --  -----  gd77-10-11d1t05.wav
    4:28.03      47282300    ---  --  -----  gd77-10-11d1t06.wav
    4:12.38      44542220    ---  --  -----  gd77-10-11d1t07.wav
    6:03.68      64193180    ---  --  -----  gd77-10-11d1t08.wav
    10:06.22      106950188    ---  --  -----  gd77-10-11d1t09.wav
    17:31.31      185469356    ---  --  -----  gd77-10-11d2t01.wav
    3:58.61      42126716    ---  --  -----  gd77-10-11d2t02.wav
    10:16.56      108794156    ---  --  -----  gd77-10-11d2t03.wav
    14:21.49      151995692    ---  --  -----  gd77-10-11d2t04.wav
    4:26.47      47032988    ---  --  -----  gd77-10-11d2t05.wav
    16:02.68      169856780    ---  --  -----  gd77-10-11d3t01.wav
    13:29.25      142766444    ---  --  -----  gd77-10-11d3t02.wav
    8:46.65      92939324    ---  --  -----  gd77-10-11d3t03.wav
  152:01.49    1609060396 B                    (totals for 17 files)

FFP
gd77-10-11d1t01.flac:ee35272dd472d738d0ced5d922705050
gd77-10-11d1t02.flac:2139db308716c3746a6f6c6d5d820cec
gd77-10-11d1t03.flac:f5a7fbdd2741a7c3c109dc35b66bb3b3
gd77-10-11d1t04.flac:895dfaefc16c9b3445d49cbec68f7ef7
gd77-10-11d1t05.flac:cc62b6ad62e90e6967ff47d185d0a2a4
gd77-10-11d1t06.flac:f81646c616a7299f266b3d242ff0acfe
gd77-10-11d1t07.flac:dc0d190e32845b9f976c7575b59cdf4b
gd77-10-11d1t08.flac:92be3de94d3a2f71fa0ff8b3e1dbaa9d
gd77-10-11d1t09.flac:346a9f8352500d8135115c56d6e349a7
gd77-10-11d2t01.flac:ca331a725fe8935975ebdccd8b2ef1f1
gd77-10-11d2t02.flac:cadd8c6709bd1ba34b8e232769c14c16
gd77-10-11d2t03.flac:f3183d0b198bfff7c19cf98866efaa01
gd77-10-11d2t04.flac:8090d5f18dc675684b7125a40d7044a8
gd77-10-11d2t05.flac:3fe1a5668d097c591ad49abb6d82a25a
gd77-10-11d3t01.flac:4994620e09dec49045724ea4cdfed93d
gd77-10-11d3t02.flac:f9a5ca60a1b4f6c24166c316495f3b29
gd77-10-11d3t03.flac:81b9bddba8b529fca45b0a24a2cc6c41 



More information about the bittorrent mailing list