[bittorrent] Widespread Panic 2007-09-27 Paramount Theatre * Oakland, CA

Automated Mailer noreply-bt.e at etree.org
Mon Oct 1 21:09:37 MDT 2007


Band:           Widespread Panic
Torrent Name:   Widespread Panic 2007-09-27 Paramount Theatre * Oakland, CA
Uploaded by:    cfox
DB Link:        
Details:        http://bt.etree.org/details.php?id=509918

Contact the seeder at http://db.etree.org/cfox

If the link to this show does not work, it was probably removed for
being non-trade-friendly.

Description / text file:
-------------------------
Widespread Panic
Paramount Theatre
Oakland, CA
2007-09-27

source: Schoeps mk41v(dina)~>kc5~>m222~>nt222 + mk21(nos)~>kcy~>vms5u~>744t (24/96)
location: fob/dfc
dsp: 744t~>wavelab5~>cdwave~>wavelab5~>flac(8)
recorded & seeded: charles fox

set 1 disc 1
01 Intro
02 Going Out West
03 Disco >
04 Diner >
05 No Sugar/New Mother Nature
06 I'm Not Alone >
07 WDYBT
08 Christmas Katie >
09 Lil Kin >
10 Action Man

set 2 disc 2
01 Intro
02 Traveling Light >
03 Barstools >
04 Machine >
05 Radio Child >
06 Casa Del Grillo >
07 Holden Oversoul*  > 
08 Life During Wartime* 
09 Drums* 

set 2 disc 3
01 Jack >
02 Chainsaw City
Encore - 
03 Ain't Life Grand

*w/Wally Ingram and Jerry Harrison

ffp
wsp2007-09-27d1t01.flac:14a36e5d62bb1c3c5e87552dc88bc903
wsp2007-09-27d1t02.flac:fe3013f465bac98204fd26f8f4acfe47
wsp2007-09-27d1t03.flac:f4dbfb06e0615097676835c157972942
wsp2007-09-27d1t04.flac:1a298aecaab3e39185ef065d8a4d3a24
wsp2007-09-27d1t05.flac:eea4348467135cc013c47f7986dda1ee
wsp2007-09-27d1t06.flac:b8e338e004a72af47bf442fc82b4c614
wsp2007-09-27d1t07.flac:f1e0bd54ed18064165137e40c9d874ae
wsp2007-09-27d1t08.flac:85380bdae4a4eed0f580f23895fb8de1
wsp2007-09-27d1t09.flac:a3af7f56488cfc8d37d760116ff998b0
wsp2007-09-27d1t10.flac:2dae584f76bdef4844d12b8a435980be
wsp2007-09-27d2t01.flac:143b0f5070e6b501b94d90eca7276f46
wsp2007-09-27d2t02.flac:bfcdf0d31e145df86085323056ca9efb
wsp2007-09-27d2t03.flac:d40c9eb8d054a96ca437694ac5431f78
wsp2007-09-27d2t04.flac:756e9c6f6c797a318e1ec17fcec43d2d
wsp2007-09-27d2t05.flac:95d5d8d5195f8e3289a701e8ddbaddba
wsp2007-09-27d2t06.flac:ac1e423d0a01123e269fb0e63797c936
wsp2007-09-27d2t07.flac:466bc943fb166ffd7f891feb4244916c
wsp2007-09-27d2t08.flac:f955a461ece6b1f30822853c67ad464a
wsp2007-09-27d2t09.flac:e3fe444c62d975d9596f71c3d64dd395
wsp2007-09-27d3t01.flac:2f62bd7d7c01d34ed8c977a2ffefeb6e
wsp2007-09-27d3t02.flac:d3d555074b7735ad5131400edcffd147
wsp2007-09-27d3t03.flac:ed57ac74dcafa2d2e9519c3788a6e90c

shntool
    length     expanded size   cdr  WAVE problems filename
     1:28.01       15525596    ---   --   ---xx   wsp2007-09-27d1t01.flac
     7:46.01       82204796    ---   --   ---xx   wsp2007-09-27d1t02.flac
     6:48.07       71987708    ---   --   ---xx   wsp2007-09-27d1t03.flac
    16:24.55      173707004    ---   --   ---xx   wsp2007-09-27d1t04.flac
     6:28.73       68614940    ---   --   ---xx   wsp2007-09-27d1t05.flac
     6:34.48       69614540    ---   --   ---xx   wsp2007-09-27d1t06.flac
     6:37.66       70186076    ---   --   ---xx   wsp2007-09-27d1t07.flac
     9:22.32       99212108    ---   --   ---xx   wsp2007-09-27d1t08.flac
     6:15.29       66218252    ---   --   ---xx   wsp2007-09-27d1t09.flac
     4:41.59       49707212    ---   --   ---xx   wsp2007-09-27d1t10.flac
     1:24.59       14956412    ---   --   ---xx   wsp2007-09-27d2t01.flac
     6:13.38       65886620    ---   --   ---xx   wsp2007-09-27d2t02.flac
    12:21.46      130820636    ---   --   ---xx   wsp2007-09-27d2t03.flac
     3:21.33       35534060    ---   --   ---xx   wsp2007-09-27d2t04.flac
     9:01.45       95538284    ---   --   ---xx   wsp2007-09-27d2t05.flac
     7:07.47       75433388    ---   --   ---xx   wsp2007-09-27d2t06.flac
    10:23.35      109979564    ---   --   ---xx   wsp2007-09-27d2t07.flac
    11:51.39      125512172    ---   --   ---xx   wsp2007-09-27d2t08.flac
    13:17.19      140635532    ---   --   ---xx   wsp2007-09-27d2t09.flac
     8:23.13       88759820    ---   --   ---xx   wsp2007-09-27d3t01.flac
    15:06.28      159884300    ---   --   ---xx   wsp2007-09-27d3t02.flac
     5:12.48       55149740    ---   --   ---xx   wsp2007-09-27d3t03.flac
   176:12.71     1865068760 B                     (totals for 22 files, 0.5652 overall compression ratio)



More information about the bittorrent mailing list