[bittorrent] gd1982-08-06.sbd-patched.16043.sbeok.shn

Automated Mailer noreply-bt.e at etree.org
Mon Oct 1 13:06:21 MDT 2007


Band:           Grateful Dead
Torrent Name:   gd1982-08-06.sbd-patched.16043.sbeok.shn 
Uploaded by:    tigerbolt
DB Link:        http://db.etree.org/lookup_show.php?shows_key=1428
Details:        http://bt.etree.org/details.php?id=509908

Contact the seeder at http://db.etree.org/tigerbolt

If the link to this show does not work, it was probably removed for
being non-trade-friendly.

Description / text file:
-------------------------
Grateful Dead

St. Paul Civic Center, St. Paul, MN

8/6/82



S : MC > C1 > DAT > CDR > SHN 

Steve Apria's soundboard master cassette->Mark Cohen's cassette->DAT->CDR->.WAV->SHN 

(Steve Apria lost the master cassette years ago)



Seeded to Etree by Alan J Fink 02/04/2003

Thanks to John Horzepa for seeding this!





Disc 1:

Set 1

1. Tuning (0:34)

2. Bertha (6:39)

3. New Minglewood Blues (7:40)

4. Candyman (6:22)

5. Little Red Rooster (8:14)

6. Bird Song (11:11)

7. El Paso (4:47)

8. Tennessee Jed (8:53)

9. It's All Over Now (8:35)

10. Lazy Lightnin' (3:33)

11. Supplication (6:01)

12. Might As Well (4:56)



Disc 2:

Set 2

1. Tuning (0:17)

2. Scarlet Begonias (6:22)

3. Scarlet/Fire Transition Jam (6:19)

4. Fire On The Mountain (11:14)

5. Stage Announcement (0:37)

6. Lost Sailor (6:59)

7. St. Of Circumstance (7:20)

8. Spacey Jam (3:42)

9. Drums (0:06)



Disc 3

Set 2 (con't)

1. Drums (1:46)

2. Space (10:55)

3. Truckin' (6:58)

4. Wharf Rat (9:06)

5. Around and Around (4:06)

6. Goin' Down the Road Feelin' Bad (7:58)

7. Johnny B. Goode (4:01)

8. E: It's All Over Now, Baby Blue (7:25)





This version is an improved one over the seeded version.  I spliced 

in the missing 13 secondsof El Paso, from the circulating AUD seed.  

In doing so I had to clip off a bit of dead space at the end of 

Birdsong.



Darryl Hinko (flyerfanatic)


45751cd78d7bdac4d57adcf49281e7db *gd1982-08-06d1t01.shn
52911fcd12d52a2e99172e24a451d850 *gd1982-08-06d1t02.shn
ffcec39a6e0bdf89757289bc786457eb *gd1982-08-06d1t03.shn
3eba9f7b995d934a7c0725c5e2a5b263 *gd1982-08-06d1t04.shn
e8aad85eae93cc2237b47326c7123e00 *gd1982-08-06d1t05.shn
fc965201d7f7ea298d4702a5194f2067 *gd1982-08-06d1t06.shn
a140aa9783823ee2b5ee067cc42fa4f0 *gd1982-08-06d1t07.shn
cca9edb6e237abd3b37bcaa3ba3bad2d *gd1982-08-06d1t08.shn
7c402aade9b68f84d7aecb54990614ca *gd1982-08-06d1t09.shn
15cd56dc779989787754cc32a7ac3837 *gd1982-08-06d1t10.shn
96a86fad0f993c1cc6b9e07bb20a916d *gd1982-08-06d1t11.shn
49318a46b84faee8dfbef7dae2de5dd4 *gd1982-08-06d1t12.shn
355f5f4c4cd56981f3e0f9b9e3ea5f57 *gd1982-08-06d2t01.shn
c58e8909c20479c2fd5b1eb01f6a064f *gd1982-08-06d2t02.shn
aeca0ba86264e09efde579dd50a5948b *gd1982-08-06d2t03.shn
b7e367c679b34d0c58dd243fc4507a9e *gd1982-08-06d2t04.shn
538a22d701ca688a923b0c40ae49e6f4 *gd1982-08-06d2t05.shn
286c691ed9341b867ef6d91464bf9a7a *gd1982-08-06d2t06.shn
36e9a436afe89909b17b7b0a86b0d82d *gd1982-08-06d2t07.shn
83235a1d33593f8b4a71475911992254 *gd1982-08-06d2t08.shn
fe12b9a63abe38daf3e02db969aa9577 *gd1982-08-06d2t09.shn
4947c115f3032cb13c919f64c70c40cf *gd1982-08-06d3t01.shn
883187ac18ed0a978867e7dfc1f8137b *gd1982-08-06d3t02.shn
c8ca26d2faf9101f5a2a8672d429156a *gd1982-08-06d3t03.shn
5098de72221c59ba1a8a38e79f17ab88 *gd1982-08-06d3t04.shn
1b57b716d69480cce899d0d483c61106 *gd1982-08-06d3t05.shn
51408bd5c39ebca21f96e510c3d63944 *gd1982-08-06d3t06.shn
871eef8bd7356a37bc871a115be8325f *gd1982-08-06d3t07.shn
434118195bf3d92cc9a8a35f01c98914 *gd1982-08-06d3t08.shn


 length     expanded size   cdr  WAVE problems filename

     0:34.58        6134060    ---   --   ---xx   gd1982-08-06d1t01.shn

     6:39.63       70531820    ---   --   ---xx   gd1982-08-06d1t02.shn

     7:40.24       81200492    ---   --   ---xx   gd1982-08-06d1t03.shn

     6:22.09       67406012    ---   --   ---xx   gd1982-08-06d1t04.shn

     8:14.35       87223964    ---   --   ---xx   gd1982-08-06d1t05.shn

    11:10.37      118275068    ---   --   ---xx   gd1982-08-06d1t06.shn

     4:55.16       52075676    ---   --   ---xx   gd1982-08-06d1t07.shn

     8:53.53       94145900    ---   --   ---xx   gd1982-08-06d1t08.shn

     8:35.18       90888380    ---   --   ---xx   gd1982-08-06d1t09.shn

     3:33.16       37610876    ---   --   ---xx   gd1982-08-06d1t10.shn

     6:01.33       63758060    ---   --   ---xx   gd1982-08-06d1t11.shn

     4:56.41       52310876    ---   --   ---xx   gd1982-08-06d1t12.shn

     0:17.46        3107036    ---   --   ---xx   gd1982-08-06d2t01.shn

     6:23.53       67685900    ---   --   ---xx   gd1982-08-06d2t02.shn

     6:19.48       66968540    ---   --   ---xx   gd1982-08-06d2t03.shn

    11:14.61      119037116    ---   --   ---xx   gd1982-08-06d2t04.shn

     0:37.00        6526844    ---   --   ---xx   gd1982-08-06d2t05.shn

     6:59.17       73951628    ---   --   ---xx   gd1982-08-06d2t06.shn

     7:20.43       77717180    ---   --   ---xx   gd1982-08-06d2t07.shn

     3:42.09       39182012    ---   --   ---xx   gd1982-08-06d2t08.shn

     0:06.60        1199564    ---   --   ---xx   gd1982-08-06d2t09.shn

     1:46.30       18769004    ---   --   ---xx   gd1982-08-06d3t01.shn

    10:55.29      115610252    ---   --   ---xx   gd1982-08-06d3t02.shn

     6:58.53       73859900    ---   --   ---xx   gd1982-08-06d3t03.shn

     9:06.24       96370892    ---   --   ---xx   gd1982-08-06d3t04.shn

     4:06.43       43495580    ---   --   ---xx   gd1982-08-06d3t05.shn

     7:58.35       84401564    ---   --   ---xx   gd1982-08-06d3t06.shn

     4:01.58       42648860    ---   --   ---xx   gd1982-08-06d3t07.shn

     7:25.64       78648572    ---   --   ---xx   gd1982-08-06d3t08.shn

   172:58.26     1830741628 B                     (totals for 29 files, 0.6230 overall compression ratio)





More information about the bittorrent mailing list