[bittorrent] WP--Bellarmine Coll--Louisville, KY--4/18/96--AKG 461

Automated Mailer noreply-bt.e at etree.org
Mon Oct 1 11:30:33 MDT 2007


Band:           Widespread Panic
Torrent Name:   WP--Bellarmine Coll--Louisville, KY--4/18/96--AKG 461
Uploaded by:    chrisdavis
DB Link:        http://db.etree.org/lookup_show.php?shows_key=5263
Details:        http://bt.etree.org/details.php?id=509907

Contact the seeder at http://db.etree.org/chrisdavis

If the link to this show does not work, it was probably removed for
being non-trade-friendly.

Description / text file:
-------------------------
Widespread Panic
Knight's Hall
Bellarmine College
Louisville, KY
April 18, 1996

source:  AKG 461's

transfer: Tascam DA-20mkII -> Acoustic Research coax -> Audiophile 24/96 -> Wavelab 5.0 (record, 48>44.1, fades) -> CD Wave -> FLAC(6)
transfer: Chris Davis (10/1/07)

Disc 1:     (70:32)
Set 1:
01.  (5:23)   Heroes
02.  (6:36)   C. Brown
03.  (4:07)   Tall Boy
04.  (6:23)   Weight of the World
05.  (7:52)   Ribertha ->
06.  (3:11)   Send Your Mind
07.  (6:29)   Jack ->
08.  (5:14)   Proving Ground ->
09.  (4:59)   Blackout Blues ->
10.  (1:52)   Proving Ground

Set 2:
11.  (5:11)   Disco ->
12.  (7:56)   Low Ryder ->
13.  (5:19)   Love Tractor

Disc 2:     (68:12)
Set 2 (cont):
01.  (6:12)   Nobody's Loss
02.  (9:50)   Space Wrangler ->
03.  (3:26)   Smoke and Burn
04.  (5:26)   Happy ->
05.  (3:35)   Wondering
06.  (6:50)   Rock ->
07.  (7:25)   Drums ->
08.  (10:10)  Chilly Water

Encore:
09.  (4:49)   crowd
10.  (4:00)   Porch Song (slow) ->
11.  (6:29)   Knocking 'Round the Zoo



   length     expanded size    cdr  WAVE problems  fmt   ratio  filename
     5:23.22       57028988 B   ---   --   -----    wav  1.0000  wp1996-04-18d1t01.wav
     6:36.14       69887372 B   ---   --   -----    wav  1.0000  wp1996-04-18d1t02.wav
     4:07.04       43580252 B   ---   --   -----    wav  1.0000  wp1996-04-18d1t03.wav
     6:23.40       67655324 B   ---   --   -----    wav  1.0000  wp1996-04-18d1t04.wav
     7:52.33       83338460 B   ---   --   -----    wav  1.0000  wp1996-04-18d1t05.wav
     3:11.35       33774764 B   ---   --   -----    wav  1.0000  wp1996-04-18d1t06.wav
     6:29.61       68763116 B   ---   --   -----    wav  1.0000  wp1996-04-18d1t07.wav
     5:14.05       55401404 B   ---   --   -----    wav  1.0000  wp1996-04-18d1t08.wav
     4:59.32       52818908 B   ---   --   -----    wav  1.0000  wp1996-04-18d1t09.wav
     1:52.50       19874444 B   ---   --   -----    wav  1.0000  wp1996-04-18d1t10.wav
     5:11.33       54938060 B   ---   --   -----    wav  1.0000  wp1996-04-18d1t11.wav
     7:56.25       84025244 B   ---   --   -----    wav  1.0000  wp1996-04-18d1t12.wav
     5:19.29       56339852 B   ---   --   -----    wav  1.0000  wp1996-04-18d1t13.wav
     6:12.26       65681996 B   ---   --   -----    wav  1.0000  wp1996-04-18d2t01.wav
     9:50.43      104177180 B   ---   --   -----    wav  1.0000  wp1996-04-18d2t02.wav
     3:26.22       36390188 B   ---   --   -----    wav  1.0000  wp1996-04-18d2t03.wav
     5:26.64       57656972 B   ---   --   -----    wav  1.0000  wp1996-04-18d2t04.wav
     3:35.55       38055404 B   ---   --   -----    wav  1.0000  wp1996-04-18d2t05.wav
     6:50.36       72408716 B   ---   --   -----    wav  1.0000  wp1996-04-18d2t06.wav
     7:25.65       78650924 B   ---   --   -----    wav  1.0000  wp1996-04-18d2t07.wav
    10:10.05      107615804 B   ---   --   -----    wav  1.0000  wp1996-04-18d2t08.wav
     4:49.74       51153692 B   ---   --   -----    wav  1.0000  wp1996-04-18d2t09.wav
     4:00.41       42432476 B   ---   --   -----    wav  1.0000  wp1996-04-18d2t10.wav
     6:29.55       68749004 B   ---   --   -----    wav  1.0000  wp1996-04-18d2t11.wav
   138:55.44     1470398544 B                            1.0000  (24 files)


wp1996-04-18d1t01.flac:88d3b8f7d8e51b5212aee1fd9ea89c0f
wp1996-04-18d1t02.flac:3ddfb530f98ac68fd71fd7cdf05b2d5f
wp1996-04-18d1t03.flac:1ddcd511110928490f5c6d70ca212e70
wp1996-04-18d1t04.flac:d676f2ac54f9f34a45a5d6509ab0ed06
wp1996-04-18d1t05.flac:783e733f3fc7c04ae1552dabf44c7f84
wp1996-04-18d1t06.flac:f03096d7a37c1c480e33b9d14b1f601c
wp1996-04-18d1t07.flac:80a443bce10ca306f4441d21e3ab5089
wp1996-04-18d1t08.flac:5628f5858389af6516c149d10fed268a
wp1996-04-18d1t09.flac:300eae0abf0b3c3e817763e4a4c01e4f
wp1996-04-18d1t10.flac:17244336377742bbcf586e54ffc25128
wp1996-04-18d1t11.flac:5e93feaf8a7c5e7cf0357e7beb7f31f7
wp1996-04-18d1t12.flac:879f8c0f78949b07a8af1b002366786c
wp1996-04-18d1t13.flac:8293cf0cfe77375e8330679f45afbccf
wp1996-04-18d2t01.flac:64f7e4d1df84ca4dac125a44f3c1e016
wp1996-04-18d2t02.flac:30aa0cd84e3c814375ffb68973c023ea
wp1996-04-18d2t03.flac:0b9674ea4f1bcbbd6beba927c75d0e33
wp1996-04-18d2t04.flac:2f9975e41a60a807ee5dd9bef95d9c17
wp1996-04-18d2t05.flac:904b44898386d6b9ca467f80179aadc7
wp1996-04-18d2t06.flac:d40f22f45d8c489dfea5ac37e5b82cdd
wp1996-04-18d2t07.flac:89f3eb7a3544c25a937e6b8c85d3ff2d
wp1996-04-18d2t08.flac:39738674b507aaaf54b9e79d8609512a
wp1996-04-18d2t09.flac:d8f8ea56fb9dbd804c89d4174a23e18f
wp1996-04-18d2t10.flac:fc9aa04e38cf6d3d29d3e60d87dbf539
wp1996-04-18d2t11.flac:17e7f715c73167209b8672eac02d41cd




More information about the bittorrent mailing list