[bittorrent] GD, Giant Stadium NJ, 06-17-1991, Aud New Source, 48kHz

Automated Mailer noreply-bt.e at etree.org
Tue Jul 31 20:06:33 MDT 2007


Band:           Grateful Dead
Torrent Name:   GD, Giant Stadium NJ, 06-17-1991, Aud New Source, 48kHz
Uploaded by:    nfagdtrfb
DB Link:        
Details:        http://bt.etree.org/details.php?id=508648

Contact the seeder at http://db.etree.org/nfagdtrfb

If the link to this show does not work, it was probably removed for
being non-trade-friendly.

Description / text file:
-------------------------
GRATEFUL DEAD 
Giants Stadium 
East Rutherford NJ 
06-17-1991 

48kHz (16-bit) file-set. 

Set One (60:48) 

s1t01 crowd & tuning 
s1t02 Eyes of the World > 
s1t03 Walkin' Blues 
s1t04 Brown Eyed Women > 
s1t05 Dark Star Jam #1 > 
s1t06 When I Paint My Masterpiece 
s1t07 Loose Lucy 
s1t08 Cassidy > 
s1t09 Might as Well 

Set Two (102:45) 

s2t01 Jam > 
s2t02 Saint of Circumstance > 
s2t03 Ship of Fools > 
s2t04 Dark Star Jam #2 > 
s2t05 Truckin' > 
s2t06 New Speedway Boogie > 
s2t07 Uncle John's Band > 
s2t08 Dark Star Jam #3 > 
s2t09 Drums > 
s2t10 Sounds from the Swamp > 
s2t11 Space > 
s2t12 China Doll > 
s2t13 Playin' Reprise 
s2t14 Sugar Magnolia 
-- encore -- 
s2t15 crowd & tuning 
s2t16 The Weight 

AUD Source: Nakamichi CM-300's w/CP-4 shotgun capsules > 
Casio DA-7 > Maxell R-DM Dat tape. Mics on stand aprx 8-feet 
high, set up to the left of the soundboard (stage right). 

Transfer: MAD > Sony TCD-D10P > Coax SPDIF > Audiophile 2496 > 
Soundforge (at 48kHz) > CD-Wave > TLH > FLAC. Taped and 
transferred (7/2007) by Andrew F. 

Notes: 
- Several untracked Dark Star hints thru-out the concert. 
- Soundforge used to make fades. 
- TLH used for FLAC compression and making checksums. 

md5 

ba0fb429ca75821e9de9a45fe3b11f77 *gd1991-06-17s1t01.flac 
d8288058a7ecde837e1575d1abf5f168 *gd1991-06-17s1t02.flac 
c43ae25496f009c9614dab2aba366caf *gd1991-06-17s1t03.flac 
706e15870f5d09d73410fc0818af07aa *gd1991-06-17s1t04.flac 
18b3a34eff5d4c463b08b59223f7e827 *gd1991-06-17s1t05.flac 
66b87b093a6bccbb3dd2bd75286bcf46 *gd1991-06-17s1t06.flac 
684b5a9c8a10f12a8ccdb6218d98d887 *gd1991-06-17s1t07.flac 
cc3e43aa807a67b75c98f5762f72d9da *gd1991-06-17s1t08.flac 
2f56ce0a311630f9092acec0070e0ac4 *gd1991-06-17s1t09.flac 
f5f8ac20dcd4787b63adfa77f1959166 *gd1991-06-17s2t01.flac 
5aef059c4d6e109969257cab95d337e0 *gd1991-06-17s2t02.flac 
2e106c231c5fac3a1b383793e387cb85 *gd1991-06-17s2t03.flac 
5ca36943cb1444af54238aa640a420c4 *gd1991-06-17s2t04.flac 
3826b791cf19e7e8684d6281b49b0aab *gd1991-06-17s2t05.flac 
34f6a55566f22831146501d6a449333a *gd1991-06-17s2t06.flac 
a352f2b2cd4c26683aae681058025ff4 *gd1991-06-17s2t07.flac 
945311752adc046d688da799841db632 *gd1991-06-17s2t08.flac 
b3ed230932795cf92c685d2e3a5defeb *gd1991-06-17s2t09.flac 
79c7d40a9781153d4fcfa6508703b5d8 *gd1991-06-17s2t10.flac 
5f6b0a9eb866c945209f9470fff06980 *gd1991-06-17s2t11.flac 
c28da9eee8369dafa54818fe447e818d *gd1991-06-17s2t12.flac 
f90688c5fe88f87c173437eec0937db8 *gd1991-06-17s2t13.flac 
0bf79bfb835b64735d7673e15163b988 *gd1991-06-17s2t14.flac 
d493924e79c8142429f7ff53da64fb42 *gd1991-06-17s2t15.flac 
88e81c9ca21ee796d19163e254d3efa9 *gd1991-06-17s2t16.flac 

ffp 

gd1991-06-17s1t01.flac:e7be4cb7fc4e1574463f71b57cca7923 
gd1991-06-17s1t02.flac:eab2785a128d481c52d2cb8844c6b4ea 
gd1991-06-17s1t03.flac:36e43beb28e6dc8b5e3f73de7b97068e 
gd1991-06-17s1t04.flac:36f38b95ff4871f96c37cb788a77585d 
gd1991-06-17s1t05.flac:99072dcb562eaa0664e9efb40aa7b56b 
gd1991-06-17s1t06.flac:81c9674095ed3384c522c46245c1ab78 
gd1991-06-17s1t07.flac:77250efe3cd6ccf85363091d422002b7 
gd1991-06-17s1t08.flac:9265f53ac65c97a5e5a36f73490faba4 
gd1991-06-17s1t09.flac:7551e66287ab693f70945e06da30f6d2 
gd1991-06-17s2t01.flac:59ea7dcf6fa4a3d31c81c538b859a4cf 
gd1991-06-17s2t02.flac:34b0dd91c02d8c7b85ad2fcad47e6ae4 
gd1991-06-17s2t03.flac:e0230dbc1a5ede821f38cd11f89cc5a4 
gd1991-06-17s2t04.flac:dd48a0ddf47c944c3c02a2a605b5ef5a 
gd1991-06-17s2t05.flac:0ba82ab11ec6bdbc21e1076927c83aaa 
gd1991-06-17s2t06.flac:6c384d35ad5acb575bae4429c80aa63a 
gd1991-06-17s2t07.flac:d45be43e9da278539b90970cbaedb6e6 
gd1991-06-17s2t08.flac:75d473633bda5b91e03219ae5490abb9 
gd1991-06-17s2t09.flac:ea54b82e1385241889f2e349455f7d65 
gd1991-06-17s2t10.flac:3930d5d80b802a2acb2a60832136debd 
gd1991-06-17s2t11.flac:e38be1567322ff92ca92770e6b697574 
gd1991-06-17s2t12.flac:20c99485e1177bc4dfc194785e3c91c7 
gd1991-06-17s2t13.flac:f68590f046b641f3fdb1a7f21aaf62f5 
gd1991-06-17s2t14.flac:dac1122cd907f5f2b53f0dabc6676894 
gd1991-06-17s2t15.flac:6d757792c5961dacb5294907e34086ff 
gd1991-06-17s2t16.flac:0d82ff2d555f3c932a2d94d3a755b68b 

shntool 

    length     expanded size   cdr  WAVE problems filename 
     1:32.573      17774124    cxx   --   ---xx   gd1991-06-17s1t01.flac 
    15:02.733     173324844    cxx   --   ---xx   gd1991-06-17s1t02.flac 
     7:02.573      81134124    cxx   --   ---xx   gd1991-06-17s1t03.flac 
     6:10.733      71180844    cxx   --   ---xx   gd1991-06-17s1t04.flac 
     1:31.053      17482284    cxx   --   ---xx   gd1991-06-17s1t05.flac 
     6:27.653      74429484    cxx   --   ---xx   gd1991-06-17s1t06.flac 
     9:15.280     106613804    cxx   --   ---xx   gd1991-06-17s1t07.flac 
     7:12.640      83066924    cxx   --   ---xx   gd1991-06-17s1t08.flac 
     6:32.973      75450852    cxx   --   ---xx   gd1991-06-17s1t09.flac 
     2:53.567      33324972    cxx   --   ---xx   gd1991-06-17s2t01.flac 
     7:00.400      80716844    cxx   --   ---xx   gd1991-06-17s2t02.flac 
     7:58.587      91888684    cxx   --   ---xx   gd1991-06-17s2t03.flac 
     1:17.627      14904364    cxx   --   ---xx   gd1991-06-17s2t04.flac 
     6:55.987      79869484    cxx   --   ---xx   gd1991-06-17s2t05.flac 
    10:08.147     116764204    cxx   --   ---xx   gd1991-06-17s2t06.flac 
     9:29.440     109332524    cxx   --   ---xx   gd1991-06-17s2t07.flac 
    10:03.013     115778604    cxx   --   ---xx   gd1991-06-17s2t08.flac 
     6:28.813      74652204    cxx   --   ---xx   gd1991-06-17s2t09.flac 
     5:28.120      62999084    cxx   --   ---xx   gd1991-06-17s2t10.flac 
     8:32.973      98490924    cxx   --   ---xx   gd1991-06-17s2t11.flac 
     5:18.280      61109804    cxx   --   ---xx   gd1991-06-17s2t12.flac 
     4:32.307      52282924    cxx   --   ---xx   gd1991-06-17s2t13.flac 
     9:30.907     109614124    cxx   --   ---xx   gd1991-06-17s2t14.flac 
     0:52.480      10076204    cxx   --   ---xx   gd1991-06-17s2t15.flac 
     6:15.132      72025444    cxx   --   ---xx   gd1991-06-17s2t16.flac 
   163:33.993    1884287676 B                     (totals for 25 files, 0.5470 overall compression ratio) 




More information about the bittorrent mailing list