[bittorrent] Derek Trucks Band--Be Here Now--Asheville, NC--4/26/98--open for Mule

Automated Mailer noreply-bt.e at etree.org
Tue Jul 31 16:34:24 MDT 2007


Band:           Derek Trucks Band
Torrent Name:   Derek Trucks Band--Be Here Now--Asheville, NC--4/26/98--open for Mule
Uploaded by:    chrisdavis
DB Link:        http://db.etree.org/lookup_show.php?shows_key=111993
Details:        http://bt.etree.org/details.php?id=508645

Contact the seeder at http://db.etree.org/chrisdavis

If the link to this show does not work, it was probably removed for
being non-trade-friendly.

Description / text file:
-------------------------
Derek Trucks Band
Be Here Now
Asheville, NC
April 26, 1998 (Sunday)
opening for Govt Mule

Source: Unknown Audience (dat clone)
transfer: Tascam DA-20mkII -> Monster coax -> Audiophile 24/96 -> Wavelab 5.0 -> CD Wave -> FLAC (6)

dat provided by: Brian Watson, via Todd Trego
transfer: Chris Davis (07/31/07)


One Disc (70:32):

01.  (2:37)   2 Minute Jam ->
02.  (5:02)   Otto
03.  (4:28)   Preachin' Blues ->
04.  (6:11)   Naimi
05.  (5:20)   555 Lake
06.  (0:40)   band intros
07.  (7:13)   Traveling South
08.  (5:31)   Egg 15 ->
09.  (1:44)   drums/bass ->
10.  (2:08)   drums ->
11.  (3:25)   Egg 15

filler:
Govt Mule  4/26/98
Aud -> ? -> CD -> EAC (w/ log) -> FLAC (6)

11.  (1:33)   intro/tuning   
12.  (24:40)  Afro Blue*
 
*with Derek Trucks and Mike Barnes (guitar), and Bill McKay (keyboards)

dtb1998-04-26t01.flac:eb0981aa1aaaa620c66e9353655a215d
dtb1998-04-26t02.flac:10c0e75685707fb830b3c39f2771a50f
dtb1998-04-26t03.flac:a270c93b96c486d063eb1cb563a2bb5c
dtb1998-04-26t04.flac:52ae80c6503bbcf5892a148d08348838
dtb1998-04-26t05.flac:e1d0332eebd7692e3ffc880d57ac706d
dtb1998-04-26t06.flac:ea6048ab7b7b9f8fc99661ad0ae468ac
dtb1998-04-26t07.flac:d63ce2ddaf7dd0649c118cc90be60585
dtb1998-04-26t08.flac:6cdd1716fe4c1eac9e744985ec81bdcf
dtb1998-04-26t09.flac:b035e0778def6efbf68969a1707479d2
dtb1998-04-26t10.flac:70751be5e0ca21cbd4b42e6924157cfa
dtb1998-04-26t11.flac:40c64de4d985e1c8577f4ef40a1c8963
dtb1998-04-26t12.flac:f41201a5c6d871ee07d25395bb8358dc
dtb1998-04-26t13.flac:6deadfbd67bc19ec43875a8bf911e242


    length     expanded size    cdr  WAVE problems  fmt   ratio  filename
     2:37.34       27774812 B   ---   --   -----    wav  1.0000  dtb1998-04-26t01.wav
     5:02.28       53338700 B   ---   --   -----    wav  1.0000  dtb1998-04-26t02.wav
     4:28.06       47289356 B   ---   --   -----    wav  1.0000  dtb1998-04-26t03.wav
     6:11.52       65566748 B   ---   --   -----    wav  1.0000  dtb1998-04-26t04.wav
     5:20.63       56596220 B   ---   --   -----    wav  1.0000  dtb1998-04-26t05.wav
     0:40.00        7056044 B   ---   --   -----    wav  1.0000  dtb1998-04-26t06.wav
     7:13.70       76545884 B   ---   --   -----    wav  1.0000  dtb1998-04-26t07.wav
     5:31.49       58503692 B   ---   --   -----    wav  1.0000  dtb1998-04-26t08.wav
     1:44.08       18364460 B   ---   --   -----    wav  1.0000  dtb1998-04-26t09.wav
     2:08.44       22682732 B   ---   --   -----    wav  1.0000  dtb1998-04-26t10.wav
     3:25.57       36296108 B   ---   --   -----    wav  1.0000  dtb1998-04-26t11.wav
     1:33.47       16515788 B   ---   --   -----    wav  1.0000  dtb1998-04-26t12.wav
    24:40.61      261215516 B   ---   --   -----    wav  1.0000  dtb1998-04-26t13.wav
    70:38.69      747746060 B                            1.0000  (13 files)




More information about the bittorrent mailing list