[bittorrent] Phish - 4/2/98 - Uniondale, NY - Neumann TLM 170 - new source to circulation

Automated Mailer noreply-bt.e at etree.org
Sun Jul 29 20:59:42 MDT 2007


Band:           Phish
Torrent Name:   Phish - 4/2/98 - Uniondale, NY - Neumann TLM 170 - new source to circulation
Uploaded by:    jasonsobel
DB Link:        http://db.etree.org/shn/86411
Details:        http://bt.etree.org/details.php?id=508605

Contact the seeder at http://db.etree.org/jasonsobel

If the link to this show does not work, it was probably removed for
being non-trade-friendly.

Description / text file:
-------------------------
Phish
April 2, 1998
Nassau Coliseum
Uniondale, NY

source:
Neumann TLM 170 > Sonosax SX-M2 > Tascam DA-P1 (@ 48 kHz)

transfer:
Tascam DA-20MKII > Tascam HD-P2 > CF card > usb 2.0 > pc > WaveLab 5.01b (fades) > r8brain v1.9 (resample to 44.1 kHz) > CD Wave v1.95.1 > FLAC v1.1.4 (Level 8)

FLAC tags added with metaflac v1.1.4

transferred by Jason Sobel (jasonsobel at gmail.com)
seeded July 14, 2007

notes:
the 48kHz files from the DAT transfer have been archived, and are available upon request.
Big thanks to Mark Lynn for letting me borrow his DATs!

Disc 1 - [60:37]
Set I
01 - [07:58] - Tube
02 - [02:39] - My Mind's Got a Mind of its Own
03 - [03:54] - The Sloth
04 - [06:22] - NICU
05 - [19:35] - Stash >
06 - [03:43] - Horn
07 - [05:28] - Waste
08 - [10:57] - Chalk Dust Torture

Disc 2 - [57:40]
Set II
01 - [10:09] - Punch You in the Eye
02 - [10:12] - Simple >
03 - [09:20] - Birds of a Feather *
04 - [01:28] - Trey talks
05 - [08:33] - Wolfman's Brother ->
06 - [12:10] - Sneakin' Sally Through the Alley ->
07 - [05:48] - Frankie Says * >

Disc 3 - [42:10]
Set II continued
01 - [18:34] - Twist >
02 - [05:58] - Sleeping Monkey
03 - [02:39] - Rocky Top
04 - [03:23] - encore break
05 - [10:24] - Guyute
06 - [01:11] - outro

* first time played

--------------------------------------------------------------------------------------

SHNtool output:

    length     expanded size   cdr  WAVE problems filename
     7:57.63       84291020    ---   --   ---xx   ph1998-04-02d1t01.flac
     2:39.34       28127612    ---   --   ---xx   ph1998-04-02d1t02.flac
     3:53.45       41207084    ---   --   ---xx   ph1998-04-02d1t03.flac
     6:22.23       67438940    ---   --   ---xx   ph1998-04-02d1t04.flac
    19:34.53      207218300    ---   --   ---xx   ph1998-04-02d1t05.flac
     3:43.13       39367820    ---   --   ---xx   ph1998-04-02d1t06.flac
     5:28.32       57934508    ---   --   ---xx   ph1998-04-02d1t07.flac
    10:57.37      115981868    ---   --   ---xx   ph1998-04-02d1t08.flac
    10:08.74      107425292    ---   --   ---xx   ph1998-04-02d2t01.flac
    10:12.09      107978012    ---   --   ---xx   ph1998-04-02d2t02.flac
     9:20.28       98849900    ---   --   ---xx   ph1998-04-02d2t03.flac
     1:27.47       15457388    ---   --   ---xx   ph1998-04-02d2t04.flac
     8:32.62       90462668    ---   --   ---xx   ph1998-04-02d2t05.flac
    12:09.47      128706188    ---   --   ---xx   ph1998-04-02d2t06.flac
     5:48.00       61387244    ---   --   ---xx   ph1998-04-02d2t07.flac
    18:34.30      196580204    ---   --   ---xx   ph1998-04-02d3t01.flac
     5:58.34       63231212    ---   --   ---xx   ph1998-04-02d3t02.flac
     2:39.00       28047644    ---   --   ---xx   ph1998-04-02d3t03.flac
     3:23.32       35884508    ---   --   ---xx   ph1998-04-02d3t04.flac
    10:24.12      110101868    ---   --   ---xx   ph1998-04-02d3t05.flac
     1:11.00       12524444    ---   --   ---xx   ph1998-04-02d3t06.flac
   160:27.00     1698203724 B                     (totals for 21 files, 0.4995 overall compression ratio)

--------------------------------------------------------------------------------------------------------
FLAC Fingerprint:
ph1998-04-02d1t01.flac:3a1419350613d4ec9cc08fd70097695c
ph1998-04-02d1t02.flac:f574505ceab1a8fbfbb4e54437a120f7
ph1998-04-02d1t03.flac:5fd32e4d3091fbab5926b6c66d486956
ph1998-04-02d1t04.flac:703715307bc0b9636d4a64d5d50b9302
ph1998-04-02d1t05.flac:3897dc1214f52d6a521f87eab7a35d44
ph1998-04-02d1t06.flac:bcd193cc72dc886c2ec86c986ca196b4
ph1998-04-02d1t07.flac:73c04e5197cd98e6f3d9f024edc611b0
ph1998-04-02d1t08.flac:d7af0ddedd23486ef6889ab28da3a225
ph1998-04-02d2t01.flac:92370b044455ca7203c8e00a608260c3
ph1998-04-02d2t02.flac:e761d02efeb082e2e80a3ee9c0011be9
ph1998-04-02d2t03.flac:18bcc47f23351c53e4660a4d3ab5a7ce
ph1998-04-02d2t04.flac:f351d717f5e552f6f4c725a9b3828cd2
ph1998-04-02d2t05.flac:70e8f16ead02d269d58e93a89088ccc8
ph1998-04-02d2t06.flac:ba17f65ca1b67e742531e57f5f6715da
ph1998-04-02d2t07.flac:3a0b3d62565e14b02f6ba2919f09703f
ph1998-04-02d3t01.flac:bda944b5ce26ea056027f79c719578fd
ph1998-04-02d3t02.flac:b8d6738b4a37010818824ab6e5d12dc0
ph1998-04-02d3t03.flac:756826c29b69f4542721691df3608a58
ph1998-04-02d3t04.flac:3d7ad9ed9707e72456e201c92f15d8fe
ph1998-04-02d3t05.flac:ef92ce5cd0b959692656c50a80096410
ph1998-04-02d3t06.flac:62c1987f857005d937192b24c85588a1
--------------------------------------------------------------------------------------------------------
wav md5:
4132d017b7c4c323825339471746c102 *ph1998-04-02d1t01.wav
2aaa70dbd2cc06d2e35b9e222a564177 *ph1998-04-02d1t02.wav
0ebbc393b9a38c1247c73b24f501ea35 *ph1998-04-02d1t03.wav
fea9727b93d1932f76a070d5910e3939 *ph1998-04-02d1t04.wav
e9c914598e76f0504c6a559c4725f598 *ph1998-04-02d1t05.wav
47e85ba6b22cf75597a57f8191120050 *ph1998-04-02d1t06.wav
95a8599bca9a644f9d192da3f73f5fd5 *ph1998-04-02d1t07.wav
3119ebbf412c14ad1f1f1eda2ac37872 *ph1998-04-02d1t08.wav
de2184f634a9e4fbdc90ab0551e00aa2 *ph1998-04-02d2t01.wav
3fdbe0470f10464042259965a787bf92 *ph1998-04-02d2t02.wav
4c283c065a63c70476b1a33c8a5a059e *ph1998-04-02d2t03.wav
2c1f8dc8a23814f572f0becdacd5f3c3 *ph1998-04-02d2t04.wav
0085ee88824ae4b1acc4c052e356b5c6 *ph1998-04-02d2t05.wav
cbffd8a42d73ea03ec23e3a9db883249 *ph1998-04-02d2t06.wav
4e1d66e5d39aed2fa4e05f75ea242a08 *ph1998-04-02d2t07.wav
7c3b63a15bdad4e069ffadad959fc7ab *ph1998-04-02d3t01.wav
02dd69d683ae9b31ec3d94a8ace44050 *ph1998-04-02d3t02.wav
ea9e364c2b121939c9a13e30351e2148 *ph1998-04-02d3t03.wav
1592f23e4eac84d37605e2b6a9037b7c *ph1998-04-02d3t04.wav
9c7ea61cca752eb9fd174690949b4709 *ph1998-04-02d3t05.wav
caa30b13d1a77a836227ad34215d92ea *ph1998-04-02d3t06.wav
--------------------------------------------------------------------------------------------------------



More information about the bittorrent mailing list