[bittorrent] WP--Verizon Wireless--Charlotte, NC--7/28/07--(fob) Peluso

Automated Mailer noreply-bt.e at etree.org
Sun Jul 29 10:13:28 MDT 2007


Band:           Widespread Panic
Torrent Name:   WP--Verizon Wireless--Charlotte, NC--7/28/07--(fob) Peluso
Uploaded by:    chrisdavis
DB Link:        
Details:        http://bt.etree.org/details.php?id=508579

Contact the seeder at http://db.etree.org/chrisdavis

If the link to this show does not work, it was probably removed for
being non-trade-friendly.

Description / text file:
-------------------------
Widespread Panic
Verizon Wireless Ampitheater
Charlotte,NC
July 28, 2007 (Saturday)

source:  Peluso CEMC6/CK4 -> BMp+ mod UA-5 -> JB3
location:  FOB, Section 2, Row S, Seats 35-36, 12 seats Left of Center

transfer:  JB3 -> Creative Play Center -> CD Wave Editor -> FLAC (6)

taped by:  Chris Davis, Todd Trego, and Col. George (ret.)
transfer:  Chris Davis (7/29/07)

Disc 1:     (62:35)
Set 1:
01.  (0:46)   intro/tuning
02.  (4:09)   All Time Low ->
03.  (7:35)   Rock
04.  (5:52)   Old Neighborhood
05.  (7:06)   Stop Breakin' Down Blues
06.  (8:24)   One Arm Steve ->
07.  (9:06)   Walk On
08.  (6:02)   Time Zones
09.  (3:38)   B of D ->
10.  (9:57)   Chilly Water

Disc 2:     (67:38)
Set 2:
01.  (0:42)   intro/tuning
02.  (8:41)   Ribs n Whiskey
03.  (14:07)  Airplane ->  Jam ->
04.  (10:34)  Space Wrangler
05.  (3:13)   Machine Funk ->
06.  (14:36)  Barstools and Dreamers
07.  (8:44)   Fairies Wear Boots ->
08.  (7:01)   Drums ->

Disc 3:     (53:58)
Set 2 (cont):
01.  (1:41)   Drums/Bass ->
02.  (7:50)   Pilgrims ->
03.  (11:10)  Arlene ->
04.  (12:29)  Fishwater

Encore:
05.  (4:44)   crowd/banter
06.  (4:45)   Crippled Inside
07.  (6:19)   End of the Show
08.  (5:00)   Lawyers, Guns, and Money


wp2007-07-28d1t01.flac:e1de95e778414a42f1cde1e5685f7cbd
wp2007-07-28d1t02.flac:89ddefdd1fa85f901dcde9b1081a949e
wp2007-07-28d1t03.flac:8e7c3e5c0c5811f2f772bd76bbc40152
wp2007-07-28d1t04.flac:e4fd24a1b2b218e3ce82659f1cce4964
wp2007-07-28d1t05.flac:21f814fafd582c443c46458b690d5ac5
wp2007-07-28d1t06.flac:bc0f8f400b48bba88ad8f5082c75a75f
wp2007-07-28d1t07.flac:827e0989e13b902f8c905d17a50a1a43
wp2007-07-28d1t08.flac:73fcf871877bcb4150e3d39c40c8a789
wp2007-07-28d1t09.flac:5b3cf22f25a66076f53a16845fe65a3c
wp2007-07-28d1t10.flac:cd084e87a3752bfecda85aa78028b739
wp2007-07-28d2t01.flac:511f5f9665c3352c1ac2376868e81b09
wp2007-07-28d2t02.flac:41c6344f7600a5b34655694d01649bc9
wp2007-07-28d2t03.flac:49745011f947c91ac4b04ec90f027e57
wp2007-07-28d2t04.flac:02b9da8e9b6525ad144a90e347e938aa
wp2007-07-28d2t05.flac:68d9b4d2b2c7f0e0e77c55c54d24c38a
wp2007-07-28d2t06.flac:6db4d42e5c06cbb484c95eeb37f17ab6
wp2007-07-28d2t07.flac:8f84b8db2721d35512e3432b37d73cc2
wp2007-07-28d2t08.flac:57ba9bfcd80ab8983e3989ac5f464545
wp2007-07-28d3t01.flac:26a349da47581cbed8d5ba7b5f27651a
wp2007-07-28d3t02.flac:5ca6f7406d080268c409c5e7031e7b4e
wp2007-07-28d3t03.flac:55ab97fb6128995f8458336dc1174447
wp2007-07-28d3t04.flac:d0dde13d9b4bed587351014611d0c3d0
wp2007-07-28d3t05.flac:3831ddf00a5dfc0430e35c1a16e6a98e
wp2007-07-28d3t06.flac:cfb9d13b1f3950cc13a9f63d670fabc4
wp2007-07-28d3t07.flac:0b8ba7314f41b183100595b68319f6ac
wp2007-07-28d3t08.flac:32e0ac946454a191827a3e40e358130d

    length     expanded size    cdr  WAVE problems  fmt   ratio  filename
     0:46.71        8281436 B   ---   --   -----    wav  1.0000  wp2007-07-28d1t01.wav
     4:09.24       43980092 B   ---   --   -----    wav  1.0000  wp2007-07-28d1t02.wav
     7:35.26       80323196 B   ---   --   -----    wav  1.0000  wp2007-07-28d1t03.wav
     5:52.11       62118716 B   ---   --   -----    wav  1.0000  wp2007-07-28d1t04.wav
     7:06.41       75242876 B   ---   --   -----    wav  1.0000  wp2007-07-28d1t05.wav
     8:24.23       88959740 B   ---   --   -----    wav  1.0000  wp2007-07-28d1t06.wav
     9:06.23       96368540 B   ---   --   -----    wav  1.0000  wp2007-07-28d1t07.wav
     6:02.73       64028540 B   ---   --   -----    wav  1.0000  wp2007-07-28d1t08.wav
     3:38.18       38497580 B   ---   --   -----    wav  1.0000  wp2007-07-28d1t09.wav
     9:57.57      105444908 B   ---   --   -----    wav  1.0000  wp2007-07-28d1t10.wav
     0:42.34        7488812 B   ---   --   -----    wav  1.0000  wp2007-07-28d2t01.wav
     8:41.04       91913852 B   ---   --   -----    wav  1.0000  wp2007-07-28d2t02.wav
    14:07.16      149448476 B   ---   --   -----    wav  1.0000  wp2007-07-28d2t03.wav
    10:34.51      111957596 B   ---   --   -----    wav  1.0000  wp2007-07-28d2t04.wav
     3:13.09       34066412 B   ---   --   -----    wav  1.0000  wp2007-07-28d2t05.wav
    14:36.55      154655804 B   ---   --   -----    wav  1.0000  wp2007-07-28d2t06.wav
     8:44.52       92555948 B   ---   --   -----    wav  1.0000  wp2007-07-28d2t07.wav
     7:01.06       74278556 B   ---   --   -----    wav  1.0000  wp2007-07-28d2t08.wav
     1:41.74       17990492 B   ---   --   -----    wav  1.0000  wp2007-07-28d3t01.wav
     7:50.50       83025644 B   ---   --   -----    wav  1.0000  wp2007-07-28d3t02.wav
    11:10.43      118289180 B   ---   --   -----    wav  1.0000  wp2007-07-28d3t03.wav
    12:29.26      132184796 B   ---   --   -----    wav  1.0000  wp2007-07-28d3t04.wav
     4:44.55       50227004 B   ---   --   -----    wav  1.0000  wp2007-07-28d3t05.wav
     4:45.21       50323436 B   ---   --   -----    wav  1.0000  wp2007-07-28d3t06.wav
     6:19.47       66966188 B   ---   --   -----    wav  1.0000  wp2007-07-28d3t07.wav
     5:00.48       53032940 B   ---   --   -----    wav  1.0000  wp2007-07-28d3t08.wav
   184:23.58     1951650760 B                            1.0000  (26 files)




More information about the bittorrent mailing list