[bittorrent] Jerry Joseph & Friends, Rocks Off Boat Cruise 7/21/07

Automated Mailer noreply-bt.e at etree.org
Fri Jul 27 17:56:59 MDT 2007


Band:           Jerry Joseph
Torrent Name:   Jerry Joseph & Friends,Rocks Off Boat Cruise  7/21/07
Uploaded by:    lynnzzz
DB Link:        
Details:        http://bt.etree.org/details.php?id=508541

Contact the seeder at http://db.etree.org/lynnzzz

If the link to this show does not work, it was probably removed for
being non-trade-friendly.

Description / text file:
-------------------------
Jerry Joseph & Friends
Rocks Off Boat Cruise
The Temptress
New York city, NY
7/21/07

**16 bit source**

Source: Matrix: Schoeps cmc621 (on stage)>Midas 300 + sbd>ad2k>744T
Transfer: 744T>soundforge 7.0 (fades/resampling/dithering)>cd wave>flac
Taped by Lex Chiesi, patched & transferred by Craig Davis

Disc One/Set One:
01 Mary Star Of The Sea>
02 Prince of Denmark*
03 We Will Go Down>
04 Good Sunday
05 Elastic

Disc Two/Set Two:
01 Intro/tuning
02 Spin Cycle>
03 North> 
04 Family Affair> North>
05 Nicaragua>
06 Spin Cycle
07 Light Is Like Water>Henry (fast)>Light Is Like Water
08 Pink Light
09 It Comes In Waves
10 Savage Garden

Notes:
* w/ I've Seen All Good People rap
**w/ Bad Sneakers (Steely Dan), Enemy Of The Enemy, Shalom, Rama Sita, 
Porch Song, & Let's Tallk About Sex raps

JJ&F2007-07-21d1t01.flac:ee0c35bc51775eda12e9093728747761
JJ&F2007-07-21d1t02.flac:e2d135dc7dd2a00f5b8f9e64720ff922
JJ&F2007-07-21d1t03.flac:f317bb081123825509949f75ecba71f3
JJ&F2007-07-21d1t04.flac:933e4de2cb06568ecd9fc107fa3e3490
JJ&F2007-07-21d1t05.flac:c4a2562855769b9720b085422e75ba98
JJ&F2007-07-21d2t01.flac:fdd6ada6eb715ed076053f74be57fff7
JJ&F2007-07-21d2t02.flac:af213feb14fda6cfbd304bf0da813286
JJ&F2007-07-21d2t03.flac:f2c791d448b24eed9ba4f57b1f5330c4
JJ&F2007-07-21d2t04.flac:875d4e03dbc48dfa40aa91a2da90647a
JJ&F2007-07-21d2t05.flac:7302a32c3b55fbc479778ad078bca248
JJ&F2007-07-21d2t06.flac:a2f57b18c872d907db908df360574808
JJ&F2007-07-21d2t07.flac:a82be60c25291de1a88b082735e0d232
JJ&F2007-07-21d2t08.flac:0a23726f4ea26d16e028e66ce018f471
JJ&F2007-07-21d2t09.flac:647f14ce261d2c313190963d69d87414
JJ&F2007-07-21d2t10.flac:5cf2a15247c767100dc1d4830f6ca403

  length     expanded size   cdr  WAVE problems filename
    14:07.57      149544908    ---   --   ---xx   JJ&F2007-07-21d1t01.flac
    10:48.67      114464828    ---   --   ---xx   JJ&F2007-07-21d1t02.flac
     7:38.01       80793596    ---   --   ---xx   JJ&F2007-07-21d1t03.flac
    10:08.29      107319452    ---   --   ---xx   JJ&F2007-07-21d1t04.flac
     6:03.57       64167308    ---   --   ---xx   JJ&F2007-07-21d1t05.flac
     1:08.72       12164588    ---   --   ---xx   JJ&F2007-07-21d2t01.flac
     7:04.43       74894780    ---   --   ---xx   JJ&F2007-07-21d2t02.flac
     6:59.02       73916348    ---   --   ---xx   JJ&F2007-07-21d2t03.flac
     3:43.20       39384284    ---   --   ---xx   JJ&F2007-07-21d2t04.flac
     3:00.41       31848476    ---   --   ---xx   JJ&F2007-07-21d2t05.flac
     3:46.09       39887612    ---   --   ---xx   JJ&F2007-07-21d2t06.flac
    13:53.58      147077660    ---   --   ---xx   JJ&F2007-07-21d2t07.flac
     6:17.48       66615740    ---   --   ---xx   JJ&F2007-07-21d2t08.flac
    11:46.42      124637228    ---   --   ---xx   JJ&F2007-07-21d2t09.flac
    13:40.22      144699788    ---   --   ---xx   JJ&F2007-07-21d2t10.flac
   120:07.43     1271416596 B                     (totals for 15 files, 0.5767 overall compression ratio)




More information about the bittorrent mailing list