[bittorrent] Grateful Dead (-: *68* :-) Columbus Veterans Hall, Columbus, OH - 11/22/68 [SBD.21933]

Automated Mailer noreply-bt.e at etree.org
Fri Jul 27 13:27:30 MDT 2007


Band:           Grateful Dead
Torrent Name:   Grateful Dead (-: *68* :-) Columbus Veterans Hall, Columbus, OH - 11/22/68 [SBD.21933]
Uploaded by:    cletus_boy
DB Link:        http://db.etree.org/shn/21933
Details:        http://bt.etree.org/details.php?id=508533

Contact the seeder at http://db.etree.org/cletus_boy

If the link to this show does not work, it was probably removed for
being non-trade-friendly.

Description / text file:
-------------------------
(-: *68* :-)

Grateful Dead
11-22-68

Veterans Hall,
Columbus, Ohio

AUD>MR>C>C>C>CD>SHN

Disc 1 (55:19)

1.  //Morning Dew (8:23)
2.  Good Morning, Little Schoolgirl (10:40)
3.  Dark Star--> (11:51)
4.  St. Stephen--> (4:50)
5.  The Eleven--> (9:29)
6.  Lovelight (10:04)

Disc 2 (29:37)

1.  //Cryptical Envelopment--> (1:44)
2.  The Other One--> (5:17)
3.  Cryptical Envelopment--> (8:26)
4.  New Potato Caboose (11:29)
5.  //We Bid You Goodnight (2:39)


This is an edited shn set direct from the previously seeded shn set from Teddy Goodbear.  The pitch has been corrected with Sound Forge  and the recording has been normalized and retracked.   

Notes:
--this recording is in mono
--a heavy dosage of digital noise reduction was almost certainly applied to this recording, probably just before the previous shn set was encoded.  
--Bill Kreutzman was absent for this show due to sickness, leaving Mickey Hart as the sole drummer    

shntool fix -o shn *shn run by tol 03-02-24, and a new md5-file generated.


SHNTOOL OUTPUT:
    length     expanded size   cdr  WAVE problems filename
     8:23.07       88745708    ---   --   ---xx   gd68-11-22d1t01.shn
    10:40.11      112921916    ---   --   ---xx   gd68-11-22d1t02.shn
    11:51.50      125538044    ---   --   ---xx   gd68-11-22d1t03.shn
     4:50.16       51193676    ---   --   ---xx   gd68-11-22d1t04.shn
     9:29.43      100472780    ---   --   ---xx   gd68-11-22d1t05.shn
    10:04.54      106672652    ---   --   ---xx   gd68-11-22d1t06-fixed.shn
     1:44.56       18477356    ---   --   ---xx   gd68-11-22d2t01.shn
     5:17.31       55995808    ---   h-   ---xx   gd68-11-22d2t02.shn
     8:26.14       89291372    ---   --   ---xx   gd68-11-22d2t03.shn
    11:29.66      121694876    ---   --   ---xx   gd68-11-22d2t04.shn
     2:39.16       28085276    ---   --   ---xx   gd68-11-22d2t05-fixed.shn
    84:56.64      899089464 B                     (totals for 11 files, 0.5458 overall compression ratio)

MD5:
1f60bc31429f4c3cc1d669d03bfc7fb1 *gd68-11-22d1t03.shn
38202c6a291682e9579eb9b3644cf849 *gd68-11-22d1t02.shn
8d9b4c5a14c996763628ab00ea174384 *gd68-11-22d1t01.shn
82b6ea450525bf727f2b55112d970a7e *gd68-11-22d1t04.shn
dbce3097433f6931c652751d1154e961 *gd68-11-22d1t05.shn
40c6556b0c2a88bb60e57b05600a8162 *gd68-11-22d1t06-fixed.shn
3406e03fd31117baf688640e1259cfbb *gd68-11-22d2t02.shn
0994d48bfa90ec695bac9de7f1e6298c *gd68-11-22d2t01.shn
c81bf2a3d8c0529bd9eac388c264ec2e *gd68-11-22d2t03.shn
3086a67a84e85cbb8c445cac1c17fadd *gd68-11-22d2t04.shn
c7ba3434a6ed9a90814e5b00fe8a34ec *gd68-11-22d2t05-fixed.shn



More information about the bittorrent mailing list