[bittorrent] Widespread Panic, Radio City Music Hall 7/21/07 4022s

Automated Mailer noreply-bt.e at etree.org
Wed Jul 25 20:21:51 MDT 2007


Band:           Widespread Panic
Torrent Name:   Widespread Panic,Radio City Music Hall  7/21/07 4022s
Uploaded by:    lynnzzz
DB Link:        
Details:        http://bt.etree.org/details.php?id=508496

Contact the seeder at http://db.etree.org/lynnzzz

If the link to this show does not work, it was probably removed for
being non-trade-friendly.

Description / text file:
-------------------------
Widespread Panic
July 21, 2007
Radio City Music Hall
New York City, NY

source: B&K4022(ortf)>Sonosax>744t (24/48)
location: fob/dfc, Row PP
transfer744T>soundforge 7.0(fades/resample/bit depth)>cd wave>flac
recorded & seeded: craig davis

Disc 1/Set 1:
01 Intro/tuning
02 This Part Of Town>
03 Climb To Safety*
04 Dyin' Man
05 Who Do You Belong To>
06 Bust It Big>
07 Smokestack Lightning>
08 Blue Indian
09 Fishwater**
10 Bowlegged Woman 

Disc 2/Set 2:
01 Time Zones
02 Action Man>
03 Machine**>
04 Barstools**
05 Good People**>
06 Chilly Water**>Jam**>
07 Maggot Brain**>
08 Imitation Leather Shoes**>
09 Chilly Water**

Disc 3/Encore:
01 Jaws Theme>Intro
02 Let's Get This Show On The Road>
03 Rock>
04 Flat Foot Floozy

Notes:
*  w/ Steve Lopez on percussion
** w/ Wally Ingram on percussion
WSP2007-07-21d1t01.flac:fb6e752b9519ce513bbfd60f1c25cea5
WSP2007-07-21d1t02.flac:a36928a1fefeb7b13c56628e48fdb218
WSP2007-07-21d1t03.flac:62dfad7645d9f582e815f9aa32c28d2d
WSP2007-07-21d1t04.flac:0c1caae364f6dea6c23dfdf8086119ce
WSP2007-07-21d1t05.flac:584cb5051e121a333d71e10faccda8e5
WSP2007-07-21d1t06.flac:bbbae5f6b11f5df64a5e7f258c1f2d0e
WSP2007-07-21d1t07.flac:f639694cdee4736eabc06419738a2f29
WSP2007-07-21d1t08.flac:c157c431bca98051315ea58b56d7ed05
WSP2007-07-21d1t09.flac:0b0d336613923ab7a4319428df77be22
WSP2007-07-21d1t10.flac:3063a3a9a403d99071d27b0775c6dd65
WSP2007-07-21d2t01.flac:8c40ed9e9238de90007c152807c190dd
WSP2007-07-21d2t02.flac:4d0f723642e312c2aad73f076bddcaf5
WSP2007-07-21d2t03.flac:595b0289c4f92b5755ba70a4dfbc2836
WSP2007-07-21d2t04.flac:8e815f3cc600d70a23ae7aba26a19601
WSP2007-07-21d2t05.flac:6c107807d5f60f5aa7faf725850cec29
WSP2007-07-21d2t06.flac:6ce6022c688dd3ff0d5e05501f46668f
WSP2007-07-21d2t07.flac:a18028495b658bd0d78ebf701ad2f117
WSP2007-07-21d2t08.flac:f3fc17316045bd138ae86360d243b7f9
WSP2007-07-21d2t09.flac:d3f4d8a6f19b64ccfdb12acc5589b248
WSP2007-07-21d3t01.flac:3673639e29d7c73d7309f38e813cc85e
WSP2007-07-21d3t02.flac:b527ab5aad6b6dbce45222c5929db91b
WSP2007-07-21d3t03.flac:c4ccf125c6f62b38ce85101316a9b74f
WSP2007-07-21d3t04.flac:f779b618dde1997d8713b1f2eb39ff6e

length     expanded size   cdr  WAVE problems filename
     0:37.36        6611516    ---   --   ---xx   WSP2007-07-21d1t01.flac
     5:23.51       57097196    ---   --   ---xx   WSP2007-07-21d1t02.flac
     6:54.00       73029644    ---   --   ---xx   WSP2007-07-21d1t03.flac
     4:47.71       50793836    ---   --   ---xx   WSP2007-07-21d1t04.flac
     6:49.08       72166460    ---   --   ---xx   WSP2007-07-21d1t05.flac
     8:15.22       87369788    ---   --   ---xx   WSP2007-07-21d1t06.flac
    11:36.00      122774444    ---   --   ---xx   WSP2007-07-21d1t07.flac
     5:28.16       57896876    ---   --   ---xx   WSP2007-07-21d1t08.flac
    14:14.24      150702092    ---   --   ---xx   WSP2007-07-21d1t09.flac
    11:10.70      118352684    ---   --   ---xx   WSP2007-07-21d1t10.flac
     7:22.70       78133484    ---   --   ---xx   WSP2007-07-21d2t01.flac
     4:21.62       46186268    ---   --   ---xx   WSP2007-07-21d2t02.flac
     3:15.58       34534460    ---   --   ---xx   WSP2007-07-21d2t03.flac
    12:41.45      134346284    ---   --   ---xx   WSP2007-07-21d2t04.flac
     7:34.47       80196188    ---   --   ---xx   WSP2007-07-21d2t05.flac
    13:48.52      146181548    ---   --   ---xx   WSP2007-07-21d2t06.flac
     6:06.01       64564796    ---   --   ---xx   WSP2007-07-21d2t07.flac
     3:40.44       38911532    ---   --   ---xx   WSP2007-07-21d2t08.flac
     9:04.39       96053372    ---   --   ---xx   WSP2007-07-21d2t09.flac
     1:44.55       18475004    ---   --   ---xx   WSP2007-07-21d3t01.flac
     8:30.73       90135740    ---   --   ---xx   WSP2007-07-21d3t02.flac
     8:06.46       85838636    ---   --   ---xx   WSP2007-07-21d3t03.flac
     6:32.52       69271148    ---   --   ---xx   WSP2007-07-21d3t04.flac
   168:08.42     1779622996 B                     (totals for 23 files, 0.6027 overall compression ratio)





More information about the bittorrent mailing list