[bittorrent] GD 8/18/89 Greek Theatre [SBD] Miller

Automated Mailer noreply-bt.e at etree.org
Wed Jul 25 17:57:27 MDT 2007


Band:           Grateful Dead
Torrent Name:   GD 8/18/89 Greek Theatre [SBD] Miller
Uploaded by:    mayormarionbarry
DB Link:        http://db.etree.org/lookup_show.php?shows_key=1867
Details:        http://bt.etree.org/details.php?id=508492

Contact the seeder at http://db.etree.org/mayormarionbarry

If the link to this show does not work, it was probably removed for
being non-trade-friendly.

Description / text file:
-------------------------
Grateful Dead - October 19, 1989
The Spectrum - Philadelphia, PA

Recording Info:
SBD -> Cassette Master (TDK MA-XG90)

Transfer Info:
Cassette Master (Tascam 122mkII) -> Apogee MiniMe (24bit/48k) ->
Samplitude Professional v8.01 -> FLAC/16
(3 Discs Audio / 2 Discs FLAC)

All Transfers and Mastering By Charlie Miller
charliemiller87 at earthlink.net
January 29, 2007

Patch Info:
(2) Nakamichi 300/CP4 + (2) Nakamichi 100/CP1 -> Cassette Master -> CD
Drums (5:01 - 5:06)

Notes:
-- Set 2 is seamless
-- Thanks to Paul Scotton and Joani Walker for the tapes
-- Patch source recorded By Steve Cherson

Set 1:
d1t01 - Tuning
d1t02 - Hell In A Bucket
d1t03 - West L.A. Fadeaway
d1t04 - Victim Or The Crime
d1t05 - Built To Last
d1t06 - Blow Away
d1t07 - When I Paint My Masterpiece
d1t08 - Cumberland Blues
d1t09 - Cassidy ->
d1t10 - Don't Ease Me In

Set 2:
d2t01 - Tuning
d2t02 - Help On The Way ->
d2t03 - Slipknot! ->
d2t04 - Franklin's Tower
d2t05 - Estimated Prophet ->
d2t06 - Eyes Of The World ->
d2t07 - Drums ->
d3t01 - Space ->
d3t02 - The Wheel ->
d3t03 - Dear Mr. Fantasy ->
d3t04 - Hey Jude ->
d3t05 - Death Don't Have No Mercy ->
d3t06 - Turn On Your Lovelight

Encore:
d3t07 - Crowd/Tuning
d3t08 - It's All Over Now, Baby Blue


SHNTOOL OUTPUT:
    length     expanded size   cdr  WAVE problems filename
     0:58.69       10393532    ---   --   -----   gd89-10-19d1t01.wav
     7:11.17       76068428    ---   --   -----   gd89-10-19d1t02.wav
     9:36.49      101721692    ---   --   -----   gd89-10-19d1t03.wav
    11:37.72      123120188    ---   --   -----   gd89-10-19d1t04.wav
     7:19.43       77540780    ---   --   -----   gd89-10-19d1t05.wav
     5:55.16       62659676    ---   --   -----   gd89-10-19d1t06.wav
     5:49.09       61584812    ---   --   -----   gd89-10-19d1t07.wav
     6:22.15       67420124    ---   --   -----   gd89-10-19d1t08.wav
     6:29.09       68640812    ---   --   -----   gd89-10-19d1t09.wav
     3:24.22       36037388    ---   --   -----   gd89-10-19d1t10.wav
     0:37.27        6590348    ---   --   -----   gd89-10-19d2t01.wav
     4:11.45       44382284    ---   --   -----   gd89-10-19d2t02.wav
     5:20.20       56495084    ---   --   -----   gd89-10-19d2t03.wav
     8:59.19       95124332    ---   --   -----   gd89-10-19d2t04.wav
    12:24.09      131262812    ---   --   -----   gd89-10-19d2t05.wav
     9:50.49      104191292    ---   --   -----   gd89-10-19d2t06.wav
    12:03.40      127631324    ---   --   -----   gd89-10-19d2t07.wav
     8:53.10       94044764    ---   --   -----   gd89-10-19d3t01.wav
     4:54.35       51943964    ---   --   -----   gd89-10-19d3t02.wav
     7:27.37       78937868    ---   --   -----   gd89-10-19d3t03.wav
     2:16.03       23997500    ---   --   -----   gd89-10-19d3t04.wav
     5:27.73       57854540    ---   --   -----   gd89-10-19d3t05.wav
     5:29.46       58143836    ---   --   -----   gd89-10-19d3t06.wav
     0:45.16        7975676    ---   --   -----   gd89-10-19d3t07.wav
     7:22.17       78008828    ---   --   -----   gd89-10-19d3t08.wav
   160:47.17     1701771884 B                     (totals for 25 files)

gd89-10-19d1t01.flac:a34b234987afcbec69715629255216db
gd89-10-19d1t02.flac:007186efedfc4cf9238029a50cdc1069
gd89-10-19d1t03.flac:ebfe98776ab7b996100059805957e1ff
gd89-10-19d1t04.flac:3c98ddc1d72c7f1592b05e7bdd9c0a58
gd89-10-19d1t05.flac:c25e018805db83008202236108acaa2c
gd89-10-19d1t06.flac:08959bc1e8b7b71d206151d81953e779
gd89-10-19d1t07.flac:0286fd11331d4095cb53274f44ea1a9d
gd89-10-19d1t08.flac:5d10d56347d474944d8c5604cad303e7
gd89-10-19d1t09.flac:1026d625346bf9f99cf049d9a97a5ec6
gd89-10-19d1t10.flac:f8c6ba89cbeca3236028a8e60330bc11
gd89-10-19d2t01.flac:47f1063dd3b539f1f03935398e59c6c4
gd89-10-19d2t02.flac:86ff35dbf866230346cd625a1817cd0e
gd89-10-19d2t03.flac:614c61fea60240d836a0b75ca4f048c1
gd89-10-19d2t04.flac:459fb9c3b0be079ef9793126c0f99954
gd89-10-19d2t05.flac:edf2e04bd9665adc6abf88fb57ca6eec
gd89-10-19d2t06.flac:e9725aa2c982f399e06fcc874c5cfeef
gd89-10-19d2t07.flac:f67783fe63005512ee62ccb7d45b6b97
gd89-10-19d3t01.flac:4d8aaa0f736c7aff8b0bfa3bd27b20ee
gd89-10-19d3t02.flac:f90e541a9a9a070ff98f01ff246944dd
gd89-10-19d3t03.flac:b3df1408b2eebba1a870bae63a401881
gd89-10-19d3t04.flac:1ca657ee79ccc41f2371caa98c1b8cc6
gd89-10-19d3t05.flac:0165e49046b5009460b9408cfa7187ac
gd89-10-19d3t06.flac:d5e4fb210dfb5912c8b7c69848917c60
gd89-10-19d3t07.flac:4829221c8c153094fe6c15038f81055b
gd89-10-19d3t08.flac:2a5ad8aea4ef8f99a6ed4e551460dd4e




More information about the bittorrent mailing list