[bittorrent] Govt Mule--Vogue--Indianapolis, IN--3/27/00--Undercirculated AUD (digital transfer)

Automated Mailer noreply-bt.e at etree.org
Wed Jul 25 08:11:57 MDT 2007


Band:           Govt Mule
Torrent Name:   Govt Mule--Vogue--Indianapolis, IN--3/27/00--Undercirculated AUD (digital transfer)
Uploaded by:    chrisdavis
DB Link:        http://db.etree.org/lookup_show.php?shows_key=95303
Details:        http://bt.etree.org/details.php?id=508483

Contact the seeder at http://db.etree.org/chrisdavis

If the link to this show does not work, it was probably removed for
being non-trade-friendly.

Description / text file:
-------------------------
Government Mule
The Vogue
Indianapolis, IN
March 27, 2000  (Monday)


Source:  Unknown Audience (dat clone)
transfer:  Tascam DA-20mkII -> Monster coax -> Audiophile 24/96 -> Wavelab 5.0 -> CD Wave -> FLAC (6)

dat provided by:  Brian Watson, via Todd Trego
transfer:  Chris Davis  (07/24/07)


One Set:

Disc 1:     (77:16)
01.  (6:41)   Wandering Child
02.  (10:38)  Thorazine Shuffle
03.  (6:30)   Life Before Insanity
04.  (5:14)   Mule ->
05.  (2:24)   Ive Been Workin' ->
06.  (1:39)   Woody's Jam ->
07.  (4:19)   Who Do You Love ->
08.  (1:49)   Mule
09.  (4:32)   Monkey Hill ->
10.  (1:19)   She's So Heavy Jam ->
11.  (4:28)   She Said, She Said ->
12.  (1:13)   Day Tripper bass intro ->
13.  (5:43)   Tomorrow Never Knows Jam
14.  (10:04)  Lively Up Yourself ->
15.  (10:43)  Power of Soul

Disc 2:     (56:56)
01.  (6:07)   Lay Your Burden Down
02.  (3:44)   Bad Little Doggie
03.  (9:24)   Drums ->
04.  (5:16)   Warren and Matt ->  Jam ->
05.  (7:12)   Blind Man in the Dark

Encore:
06.  (5:44)   crowd/Luther intro/tuning
07.  (10:04)  Spoonful*
08.  (9:25)   32/20 Blues**

*with Luther Dickinson on guitar
**with Luther on guitar and Cody on electric washboard

gm2000-03-27d1t01.flac:75d6b539da6a04bbca8aa5108933a250
gm2000-03-27d1t02.flac:d850b7dea4be482994fd1897c6b6014b
gm2000-03-27d1t03.flac:2befcda293f9e2dc734fde0f4c43c5cc
gm2000-03-27d1t04.flac:965050f1f548905a34700510f9bf0e94
gm2000-03-27d1t05.flac:4c557ab17f1f66a34afceb0a5201194b
gm2000-03-27d1t06.flac:4ac2a4ea7d3a179ec182453b5632a7fc
gm2000-03-27d1t07.flac:986f2c70351b03aa2877f07e3c4054d6
gm2000-03-27d1t08.flac:d105cded85a8008dea8b41a0768565d6
gm2000-03-27d1t09.flac:3e6c2743253c3e421d6fcb73ac18931f
gm2000-03-27d1t10.flac:c89b4d634fe34d9b29f638d58b948dbc
gm2000-03-27d1t11.flac:147ba8da006a7c26975d2dba8d8b74b7
gm2000-03-27d1t12.flac:a46c72dea0223fd27f079421775cbbbb
gm2000-03-27d1t13.flac:89e5c4eb1857aefc1889c8d94a530a38
gm2000-03-27d1t14.flac:b1504dddb8c1966a23ac6c9a462deec8
gm2000-03-27d1t15.flac:2dd465503a829647714c6573f2a5fe61
gm2000-03-27d2t01.flac:0d03869e3fa22848e096b01aa9941681
gm2000-03-27d2t02.flac:671ea154f33fcbc414a5272aaddef043
gm2000-03-27d2t03.flac:1f5cecb94db440d3f33d107dc5ee54d2
gm2000-03-27d2t04.flac:98903982acc1f39e2b60fd0d415a2363
gm2000-03-27d2t05.flac:99e10664fc2f228fbf7c4ca50a0c279a
gm2000-03-27d2t06.flac:2c00199787986c4fd0bab70ee0dd56f4
gm2000-03-27d2t07.flac:c152b8e80c415fe4dfd55d088b7c8bec
gm2000-03-27d2t08.flac:72d9fb6a7f5cef831da8f254c4d260b3

   length     expanded size    cdr  WAVE problems  fmt   ratio  filename
     6:41.32       70811708 B   ---   --   -----    wav  1.0000  gm2000-03-27d1t01.wav
    10:38.60      112684364 B   ---   --   -----    wav  1.0000  gm2000-03-27d1t02.wav
     6:30.19       68840732 B   ---   --   -----    wav  1.0000  gm2000-03-27d1t03.wav
     5:14.50       55507244 B   ---   --   -----    wav  1.0000  gm2000-03-27d1t04.wav
     2:24.50       25519244 B   ---   --   -----    wav  1.0000  gm2000-03-27d1t05.wav
     1:39.03       17470700 B   ---   --   -----    wav  1.0000  gm2000-03-27d1t06.wav
     4:19.04       45697052 B   ---   --   -----    wav  1.0000  gm2000-03-27d1t07.wav
     1:49.68       19387580 B   ---   --   -----    wav  1.0000  gm2000-03-27d1t08.wav
     4:32.70       48145484 B   ---   --   -----    wav  1.0000  gm2000-03-27d1t09.wav
     1:19.62       14081468 B   ---   --   -----    wav  1.0000  gm2000-03-27d1t10.wav
     4:28.74       47449292 B   ---   --   -----    wav  1.0000  gm2000-03-27d1t11.wav
     1:13.15       12912524 B   ---   --   -----    wav  1.0000  gm2000-03-27d1t12.wav
     5:43.61       60648716 B   ---   --   -----    wav  1.0000  gm2000-03-27d1t13.wav
    10:04.67      106703228 B   ---   --   -----    wav  1.0000  gm2000-03-27d1t14.wav
    10:43.50      113542844 B   ---   --   -----    wav  1.0000  gm2000-03-27d1t15.wav
     6:07.13       64769420 B   ---   --   -----    wav  1.0000  gm2000-03-27d2t01.wav
     3:44.72       39682988 B   ---   --   -----    wav  1.0000  gm2000-03-27d2t02.wav
     9:24.50       99607244 B   ---   --   -----    wav  1.0000  gm2000-03-27d2t03.wav
     5:16.11       55768316 B   ---   --   -----    wav  1.0000  gm2000-03-27d2t04.wav
     7:12.36       76289516 B   ---   --   -----    wav  1.0000  gm2000-03-27d2t05.wav
     5:44.65       60834524 B   ---   --   -----    wav  1.0000  gm2000-03-27d2t06.wav
    10:04.51      106665596 B   ---   --   -----    wav  1.0000  gm2000-03-27d2t07.wav
     9:25.10       99689564 B   ---   --   -----    wav  1.0000  gm2000-03-27d2t08.wav
   134:25.18     1422709348 B                            1.0000  (23 files)



More information about the bittorrent mailing list