[bittorrent] THSB--Windjammer--7/16/07--4-mic matrix--(YMSB opener)

Automated Mailer noreply-bt.e at etree.org
Sat Jul 21 09:22:40 MDT 2007


Band:           Other
Torrent Name:   THSB--Windjammer--7/16/07--4-mic matrix--(YMSB opener)
Uploaded by:    chrisdavis
DB Link:        
Details:        http://bt.etree.org/details.php?id=508375

Contact the seeder at http://db.etree.org/chrisdavis

If the link to this show does not work, it was probably removed for
being non-trade-friendly.

Description / text file:
-------------------------
Two High String Band
The Windjammer
Isle of Palms, SC
July 16,2007 (Monday)

Opening for Yonder Mountain String Band

source:  {Peluso CEMC6/ck4 -> BMp+ mod UA-5}  +  {Oktava MC-012 -> d-mod UA-5} -> JB3 -> SVU-2
location: Clamped to rear ceiling beam / DFC / 20' from stage

taped by:  Chris Davis, Todd Trego, and Col. George (ret.)

transfer: JB3 -> Creative Play Center -> CD Wave Editor -> FLAC (6)

transfer:  Chris Davis  (7/20/07)

One Set:     (41:36)
 
01.  (1:49)   tuning
02.  (4:23)
03.  (2:55)
04.  (5:26)
05.  (1:12)   band intros
06.  (5:27)
07.  (4:58)
08.  (5:32)
09.  (4:07)
10.  (5:47)

thsb2007-07-16t01.flac:4a2fb7766f11dd39b8dbe295f86df440
thsb2007-07-16t02.flac:4100ec5d648407f63310c6d402421bdc
thsb2007-07-16t03.flac:62aa7266e3c9a64482879d73d8be0bf3
thsb2007-07-16t04.flac:3acd9c282f49a671fbfa8380257df090
thsb2007-07-16t05.flac:c08c4182a3bccacfa1c0981660e50068
thsb2007-07-16t06.flac:0765e3f29b9b39e921b0c4485c369ee8
thsb2007-07-16t07.flac:04daf73c5030b7574b369dbb6a6fe582
thsb2007-07-16t08.flac:31eb1f4e219c3e7a386740eb9769fb9d
thsb2007-07-16t09.flac:5386d6053d560f1b8979830e78d2c9c0
thsb2007-07-16t10.flac:361545b4baebec17f6d849149f38e7a3


  length     expanded size    cdr  WAVE problems  fmt   ratio  filename
     1:49.64       19378172 B   ---   --   -----    wav  1.0000  thsb2007-07-16t01.wav
     4:23.24       46449692 B   ---   --   -----    wav  1.0000  thsb2007-07-16t02.wav
     2:55.61       31013516 B   ---   --   -----    wav  1.0000  thsb2007-07-16t03.wav
     5:26.67       57664028 B   ---   --   -----    wav  1.0000  thsb2007-07-16t04.wav
     1:12.21       12750236 B   ---   --   -----    wav  1.0000  thsb2007-07-16t05.wav
     5:27.73       57854540 B   ---   --   -----    wav  1.0000  thsb2007-07-16t06.wav
     4:58.74       52741292 B   ---   --   -----    wav  1.0000  thsb2007-07-16t07.wav
     5:32.34       58644812 B   ---   --   -----    wav  1.0000  thsb2007-07-16t08.wav
     4:07.10       43594364 B   ---   --   -----    wav  1.0000  thsb2007-07-16t09.wav
     5:47.54       61337852 B   ---   --   -----    wav  1.0000  thsb2007-07-16t10.wav
    41:42.32      441428504 B                            1.0000  (10 files)




More information about the bittorrent mailing list