[bittorrent] YMSB--Windjammer--Isle of Palms, SC--7/16/07--4-mic matrix

Automated Mailer noreply-bt.e at etree.org
Fri Jul 20 22:17:53 MDT 2007


Band:           Yonder Mountain String Band
Torrent Name:   YMSB--Windjammer--Isle of Palms, SC--7/16/07--4-mic matrix
Uploaded by:    chrisdavis
DB Link:        http://db.etree.org/lookup_show.php?shows_key=376895
Details:        http://bt.etree.org/details.php?id=508367

Contact the seeder at http://db.etree.org/chrisdavis

If the link to this show does not work, it was probably removed for
being non-trade-friendly.

Description / text file:
-------------------------
Yonder Mountain String Band
The Windjammer
Isle of Palms, SC
July 16, 2007 (Monday)

source:  {Peluso CEMC6/ck4 -> BMp+ mod UA-5}  +  {Oktava MC-012 -> d-mod UA-5} -> JB3 -> SVU-2
location: Clamped to rear ceiling beam / DFC / 20' from stage

taped by:  Chris Davis, Todd Trego, and Col. George (ret.)

transfer: JB3 -> Creative Play Center -> CD Wave Editor -> FLAC (6)

transfer:  Chris Davis  (7/19/07)

Disc 1:   (77:12)
Set 1:
01.  (2:06)   intro/tuning
02.  (6:01)   Sideshow Blues
03.  (2:25)   My Gal
04.  (5:21)   My Gal (cont.)
05.  (6:29)   Wildewood Dr
06.  (8:45)   Looking Back Over My Shoulder
07.  (4:52)   Night Out
08.  (6:02)   New Horizons ->
09.  (3:35)   I'd Like Off ->
10.  (5:19)   New Horizons
11.  (3:44)   Big Spike Hammer
12.  (4:42)   Share Croppers Son
13.  (5:16)   Classic Situation
14.  (10:08)  Kentucky Mandolin*
15.  (2:27)   Nothing but Nothing

Disc 2:   (59:30)
Set 1 (cont):
01.  (8:20)   Ruby

Set 2:
02.  (1:48)   intro/tuning
03.  (6:05)   Granna Wontcha Smoke Some
04.  (5:57)   Troubled Mind -> 20 Eyes -> Troubled Mind
05.  (7:57)   Crow Black Chicken
06.  (4:28)   Spanish Harlem
07.  (5:58)   Damned If the Right One
08.  (4:46)   Finally Saw the Light
09.  (9:00)   Raleigh and Spencer
10.  (5:11)   Another Day

Disc 3:   (41:58)   
Set 2 (cont):
01.  (10:05)  Peace of Mind ->
02.  (5:24)   On the Run ->
03.  (3:41)   High Cross Junction ->
04.  (5:26)   On the Run ->
05.  (5:35)   Peace of Mind

Encore:
06.  (3:02)   crowd/banter
07.  (3:40)   Old Plank Road
08.  (5:05)   Angel

*with Billy Bright (Too High String Band) on mandolin

notes:
01.  Thanks to Wayne at the Windjammer for all his help.
02.  Thanks to the kids at the Yonder Message Board for the setlist.

ymsb2007-07-16d1t01.flac:d64d4304530275ff04df8197e7e094e9
ymsb2007-07-16d1t02.flac:6a1e270f1409e30a26347f9589d69a2f
ymsb2007-07-16d1t03.flac:465107c5a1636318a5ebde9dad3c1755
ymsb2007-07-16d1t04.flac:9558af5af69cea1abe5269a1a3c72dfb
ymsb2007-07-16d1t05.flac:4ecdccc7cffff701170eab06d2561c7c
ymsb2007-07-16d1t06.flac:3a8f119d80a216b3b903a3ddd0bedcba
ymsb2007-07-16d1t07.flac:419937b74bfc340fc157928791fb18d7
ymsb2007-07-16d1t08.flac:deff4f34cb0cce0e6b89a683fd0faa58
ymsb2007-07-16d1t09.flac:b88ce030a15a48eb39d94518f8239ce4
ymsb2007-07-16d1t10.flac:216fe0f181287a15fcda85ab38994341
ymsb2007-07-16d1t11.flac:dff85f193e60557ef63f4cc67ff6db8d
ymsb2007-07-16d1t12.flac:a658ae6019a083ed75d69bac418a61a7
ymsb2007-07-16d1t13.flac:b500b97e502477795e4122f62c435cdd
ymsb2007-07-16d1t14.flac:f43e1ba3ca5e91504d4dec0b537c7c05
ymsb2007-07-16d1t15.flac:b2ced862353d5079607854a55baca5c9
ymsb2007-07-16d2t01.flac:f964b736b8be09ccbc8291872a73c3a2
ymsb2007-07-16d2t02.flac:a976d334a660a6ff3faa52698da18798
ymsb2007-07-16d2t03.flac:8892099c3242cb20673176b4807b7607
ymsb2007-07-16d2t04.flac:cb300ff98ada326d7eee752f14f9ab74
ymsb2007-07-16d2t05.flac:1b56f203d6ff73cd996be521f8e84eec
ymsb2007-07-16d2t06.flac:e47ab05392a9b2799044846299f0b69f
ymsb2007-07-16d2t07.flac:dd2a5bace626da446a69b9d9d21e403b
ymsb2007-07-16d2t08.flac:45ab5e315b05df4c48e108c468470dcb
ymsb2007-07-16d2t09.flac:a7dff54f8b54750bef7ed5bdff8d2b26
ymsb2007-07-16d2t10.flac:8a5f2f26ee0ab5e389d5b4fd67fdb189
ymsb2007-07-16d3t01.flac:2eaf9bcdc1b54c7515e09f9f42445ed7
ymsb2007-07-16d3t02.flac:bea622fbe824ed61064dceaad784eca7
ymsb2007-07-16d3t03.flac:0839851ce7d99e8b87b57d8616661647
ymsb2007-07-16d3t04.flac:038a7c8d88c5a1b6544afc434113b953
ymsb2007-07-16d3t05.flac:5f400ea482364b4bc9cfe1ed600ac25d
ymsb2007-07-16d3t06.flac:5bda166990303bd189c32f8e1ab9fdee
ymsb2007-07-16d3t07.flac:2272bcba432bfe6b3bf3939f4947c072
ymsb2007-07-16d3t08.flac:90e449870e800714d9acbb9bd61fdde4

    length     expanded size    cdr  WAVE problems  fmt   ratio  filename
     2:06.24       22282892 B   ---   --   -----    wav  1.0000  ymsb2007-07-16d1t01.wav
     6:01.65       63833324 B   ---   --   -----    wav  1.0000  ymsb2007-07-16d1t02.wav
     2:25.17       25618028 B   ---   --   -----    wav  1.0000  ymsb2007-07-16d1t03.wav
     5:21.37       56711468 B   ---   --   -----    wav  1.0000  ymsb2007-07-16d1t04.wav
     6:29.28       68685500 B   ---   --   -----    wav  1.0000  ymsb2007-07-16d1t05.wav
     8:45.00       92610044 B   ---   --   -----    wav  1.0000  ymsb2007-07-16d1t06.wav
     4:52.23       51562940 B   ---   --   -----    wav  1.0000  ymsb2007-07-16d1t07.wav
     6:02.72       64026188 B   ---   --   -----    wav  1.0000  ymsb2007-07-16d1t08.wav
     3:35.30       37996604 B   ---   --   -----    wav  1.0000  ymsb2007-07-16d1t09.wav
     5:19.09       56292812 B   ---   --   -----    wav  1.0000  ymsb2007-07-16d1t10.wav
     3:44.25       39572444 B   ---   --   -----    wav  1.0000  ymsb2007-07-16d1t11.wav
     4:42.73       49916540 B   ---   --   -----    wav  1.0000  ymsb2007-07-16d1t12.wav
     5:16.05       55754204 B   ---   --   -----    wav  1.0000  ymsb2007-07-16d1t13.wav
    10:08.41      107347676 B   ---   --   -----    wav  1.0000  ymsb2007-07-16d1t14.wav
     2:27.25       25989644 B   ---   --   -----    wav  1.0000  ymsb2007-07-16d1t15.wav
     8:20.46       88308236 B   ---   --   -----    wav  1.0000  ymsb2007-07-16d2t01.wav
     1:48.50       19168844 B   ---   --   -----    wav  1.0000  ymsb2007-07-16d2t02.wav
     6:05.60       64527164 B   ---   --   -----    wav  1.0000  ymsb2007-07-16d2t03.wav
     5:57.10       62998364 B   ---   --   -----    wav  1.0000  ymsb2007-07-16d2t04.wav
     7:57.06       84156956 B   ---   --   -----    wav  1.0000  ymsb2007-07-16d2t05.wav
     4:28.15       47310524 B   ---   --   -----    wav  1.0000  ymsb2007-07-16d2t06.wav
     5:58.27       63214748 B   ---   --   -----    wav  1.0000  ymsb2007-07-16d2t07.wav
     4:46.47       50560988 B   ---   --   -----    wav  1.0000  ymsb2007-07-16d2t08.wav
     9:00.43       95357180 B   ---   --   -----    wav  1.0000  ymsb2007-07-16d2t09.wav
     5:11.47       54970988 B   ---   --   -----    wav  1.0000  ymsb2007-07-16d2t10.wav
    10:05.17      106762028 B   ---   --   -----    wav  1.0000  ymsb2007-07-16d3t01.wav
     5:24.69       57315932 B   ---   --   -----    wav  1.0000  ymsb2007-07-16d3t02.wav
     3:41.43       39085580 B   ---   --   -----    wav  1.0000  ymsb2007-07-16d3t03.wav
     5:26.61       57649916 B   ---   --   -----    wav  1.0000  ymsb2007-07-16d3t04.wav
     5:35.46       59202236 B   ---   --   -----    wav  1.0000  ymsb2007-07-16d3t05.wav
     3:02.36       32189516 B   ---   --   -----    wav  1.0000  ymsb2007-07-16d3t06.wav
     3:40.21       38857436 B   ---   --   -----    wav  1.0000  ymsb2007-07-16d3t07.wav
     5:05.12       53830268 B   ---   --   -----    wav  1.0000  ymsb2007-07-16d3t08.wav
   178:55.05     1893667212 B                            1.0000  (33 files)




More information about the bittorrent mailing list