[bittorrent] Grateful Dead - March 28, 1973 Civic Center - Springfield, MA-Miller

Automated Mailer noreply-bt.e at etree.org
Fri Jul 20 20:54:07 MDT 2007


Band:           Grateful Dead
Torrent Name:   Grateful Dead - March 28, 1973 Civic Center - Springfield, MA-Miller
Uploaded by:    mayormarionbarry
DB Link:        http://db.etree.org/lookup_show.php?shows_key=846
Details:        http://bt.etree.org/details.php?id=508362

Contact the seeder at http://db.etree.org/mayormarionbarry

If the link to this show does not work, it was probably removed for
being non-trade-friendly.

Description / text file:
-------------------------
Grateful Dead - March 28, 1973
Civic Center - Springfield, MA

Recording Info:
SBD -> Master Reel -> Dat (44.1k)

Transfer Info:
Dat (Sony 500) -> Samplitude Professional 9.11 -> FLAC

All Transfers and Mastering By Charlie Miller
charliemiller87 at earthlink.net
July 13, 2007

Notes:
-- All disc changes are seamless
-- Minor diginoise in first part of Cumberland Blues
-- Quality improves for disc 3

Set 1:
d1t01 - Cumberland Blues
d1t02 - Here Comes Sunshine
d1t03 - Mexicali Blues
d1t04 - Wave That Flag
d1t05 - Beat It On Down The Line
d1t06 - Loser
d1t07 - Jack Straw
d1t08 - Box Of Rain
d1t09 - They Love Each Other
d1t10 - El Paso
d1t11 - Row Jimmy
d1t12 - Around And Around
d1t13 - Brown Eyed Women
d2t01 - You Ain't Woman Enough
d2t02 - Looks Like Rain
d2t03 - China Cat Sunflower ->
d2t04 - I Know You Rider

Set 2:
d2t05 - The Promised Land
d2t06 - Loose Lucy
d2t07 - Me And My Uncle
d2t08 - Don't Ease Me In
d2t09 - The Race Is On
d2t10 - Stella Blue
d2t11 - Big River
d2t12 - Mississippi Half-Step Uptown Toodeloo
d3t01 - Weather Report Suite Prelude ->
d3t02 - Dark Star ->
d3t03 - Eyes Of The World ->
d3t04 - Playing In The Band
d3t05 - Johnny B. Goode


SHNTOOL OUTPUT:
   length    expanded size  cdr  WAVE problems filename
   6:08.10      64938764    ---  --  -----  gd73-03-28d1t01.wav
   8:44.33      92511260    ---  --  -----  gd73-03-28d1t02.wav
   3:44.63      39661820    ---  --  -----  gd73-03-28d1t03.wav
   5:34.35      58999964    ---  --  -----  gd73-03-28d1t04.wav
   3:21.20      35503484    ---  --  -----  gd73-03-28d1t05.wav
   6:59.13      73942220    ---  --  -----  gd73-03-28d1t06.wav
   4:49.03      50986700    ---  --  -----  gd73-03-28d1t07.wav
   5:19.38      56361020    ---  --  -----  gd73-03-28d1t08.wav
   5:55.63      62770220    ---  --  -----  gd73-03-28d1t09.wav
   5:29.16      58073276    ---  --  -----  gd73-03-28d1t10.wav
   8:32.34      90396812    ---  --  -----  gd73-03-28d1t11.wav
   5:16.51      55862396    ---  --  -----  gd73-03-28d1t12.wav
   5:08.07      54347708    ---  --  -----  gd73-03-28d1t13.wav
   3:01.50      32046044    ---  --  -----  gd73-03-28d2t01.wav
   7:26.41      78770876    ---  --  -----  gd73-03-28d2t02.wav
   9:07.05      96502604    ---  --  -----  gd73-03-28d2t03.wav
   5:13.17      55253228    ---  --  -----  gd73-03-28d2t04.wav
   3:25.17      36202028    ---  --  -----  gd73-03-28d2t05.wav
   6:47.47      71905388    ---  --  -----  gd73-03-28d2t06.wav
   3:04.38      32547020    ---  --  -----  gd73-03-28d2t07.wav
   3:23.74      35983292    ---  --  -----  gd73-03-28d2t08.wav
   3:26.57      36472508    ---  --  -----  gd73-03-28d2t09.wav
   8:05.13      85584620    ---  --  -----  gd73-03-28d2t10.wav
   4:23.49      46508492    ---  --  -----  gd73-03-28d2t11.wav
   7:58.34      84399212    ---  --  -----  gd73-03-28d2t12.wav
   2:16.26      24051596    ---  --  -----  gd73-03-28d3t01.wav
   32:08.08      340118060    ---  --  -----  gd73-03-28d3t02.wav
   12:55.71      136877036    ---  --  -----  gd73-03-28d3t03.wav
   15:56.32      168713708    ---  --  -----  gd73-03-28d3t04.wav
   3:47.26      40103996    ---  --  -----  gd73-03-28d3t05.wav
 207:31.16    2196395352 B                    (totals for 30 files)


FLAC FINGERPRINTS:

gd73-03-28d1t01.flac:6738cd677349ad2753b41ed44395c848
gd73-03-28d1t02.flac:2977f82661abbbe93d7e4ecd711605dd
gd73-03-28d1t03.flac:28b3b8f23ed488e7e27222aed0c5079d
gd73-03-28d1t04.flac:7275df1e41af2508dbd7392fb2275437
gd73-03-28d1t05.flac:4dbc5d642dc8f545ad1ee47aa5979333
gd73-03-28d1t06.flac:560cdb58a6c28de9daa24d9730311161
gd73-03-28d1t07.flac:97922790ce4e2cb7eed17775a7161dad
gd73-03-28d1t08.flac:70fc3ddbbc3a180a7de19407e4a1c5b7
gd73-03-28d1t09.flac:7afd63d889504dd35cacb53a03f86492
gd73-03-28d1t10.flac:de28fcf1ceeb278c6b279a3510847f4e
gd73-03-28d1t11.flac:910ee5eab19bb4caffb61c8966c42666
gd73-03-28d1t12.flac:59252ba5ec179bf685b3e5d1674129fb
gd73-03-28d1t13.flac:74bef6938acf8b09a7480005bd0e1009
gd73-03-28d2t01.flac:19a8aedb76a3826689be87d5b22c23a1
gd73-03-28d2t02.flac:38bcb9ff47407ce711ddea3d80afc512
gd73-03-28d2t03.flac:8e44f2918acbd2b9c147de2953e24e79
gd73-03-28d2t04.flac:40d6831417d3da84ace30a926f37560c
gd73-03-28d2t05.flac:3fe7196a29b36f5d8ce5ca3c66cc6f51
gd73-03-28d2t06.flac:6691c8878db71f20df2b37740030d0aa
gd73-03-28d2t07.flac:6ac86bac81bd2fe88b77890bf18868b1
gd73-03-28d2t08.flac:b0940eccabfe702ade3502eec837add2
gd73-03-28d2t09.flac:5760192fc2adc8275f20a8094502ee57
gd73-03-28d2t10.flac:f5b0914feb49b8478fc6e6df15c69332
gd73-03-28d2t11.flac:e8aa39eb280231a5fa5dc3593c8abe05
gd73-03-28d2t12.flac:b52cc734ec621137eaafadce8e88dd5f
gd73-03-28d3t01.flac:ea409a4ba44f69a2df387dfa39070276
gd73-03-28d3t02.flac:6b5f16734b879d5a3b20a75aa1c40865
gd73-03-28d3t03.flac:60e9a2b913e253aa89ff3ac7db0c8bd3
gd73-03-28d3t04.flac:3573f69dfa98a15ff0f14c197a6fc640
gd73-03-28d3t05.flac:7b7c5163c02d053004a9c798ec4ccf81


FLAC MD5:

5ff10e3046f13b5379e52f4d138ac99d *gd73-03-28d1t01.flac
10fe347ac1a0e4c5dd4c4d89493df6ae *gd73-03-28d1t02.flac
92e65d123883a5d2c64d3af00a881546 *gd73-03-28d1t03.flac
39f3b11b3854a9b00bb9c3d38b4c4a41 *gd73-03-28d1t04.flac
ca6e9cf8c95d950f6c1f92b746f032ba *gd73-03-28d1t05.flac
8c4dbfccc894c55ae00c1366d0694463 *gd73-03-28d1t06.flac
1d9e4b17270efeb28ef05d665bddf026 *gd73-03-28d1t07.flac
e7a3c89ed5522e018279d88b8bdf284a *gd73-03-28d1t08.flac
7e1dc07e63dfac470ec5076aa8334ccc *gd73-03-28d1t09.flac
0b8389058fa6afea32b81d91b9cb853a *gd73-03-28d1t10.flac
ea1fe8347e172f80baa2decf13cd458d *gd73-03-28d1t11.flac
188584fffdc28e60179c7f34c18cf857 *gd73-03-28d1t12.flac
13d97ee7f8e1d083a069fa846fe43aea *gd73-03-28d1t13.flac
f9937f6d3debc1e1bb386742118f0d43 *gd73-03-28d2t01.flac
6874cdf1361be4248e92f23d12fa3e1a *gd73-03-28d2t02.flac
cad15409c9a820b43d435b87fcbd7ab6 *gd73-03-28d2t03.flac
c041cca5c30b821b1502cde792707880 *gd73-03-28d2t04.flac
9d745e42e6ea81385b578e7d5de227f9 *gd73-03-28d2t05.flac
fb004193f17777f6a1e9da9aef0d6e09 *gd73-03-28d2t06.flac
1b0ee9d74c427f15ae1c5d009a806975 *gd73-03-28d2t07.flac
b4d153235a79c38af75a2f846e62eae2 *gd73-03-28d2t08.flac
a94035bbb88c39c269a387bc43a96e75 *gd73-03-28d2t09.flac
e520d59b2383d1e88f02d684f4a873d6 *gd73-03-28d2t10.flac
d8fde06266c8ef03c46947f12964ba8e *gd73-03-28d2t11.flac
4e89497f1caa98bfc9c4110dd328a9a7 *gd73-03-28d2t12.flac
d3d919dd79ad1d067de1b1c068171ea8 *gd73-03-28d3t01.flac
568a55b617fd07fe7b689768a1a24afd *gd73-03-28d3t02.flac
d2450885168c9b6c5aa42428692a394b *gd73-03-28d3t03.flac
2061a7c54b53bf2f069bd72dfad553d7 *gd73-03-28d3t04.flac
d496ecfb84e5bf0a44c9409902df28a7 *gd73-03-28d3t05.flac



More information about the bittorrent mailing list