[bittorrent] Grateful Dead - Winterland Arena, San Francisco, CA - 10/17/74 [SBD.16189]

Automated Mailer noreply-bt.e at etree.org
Fri Jul 20 17:04:55 MDT 2007


Band:           Grateful Dead
Torrent Name:   Grateful Dead - Winterland Arena, San Francisco, CA - 10/17/74 [SBD.16189]
Uploaded by:    cletus_boy
DB Link:        http://db.etree.org/shn/16189
Details:        http://bt.etree.org/details.php?id=508358

Contact the seeder at http://db.etree.org/cletus_boy

If the link to this show does not work, it was probably removed for
being non-trade-friendly.

Description / text file:
-------------------------
The Grateful Dead

Winterland Arena
San Francisco, Calif.

October 17, 1974

MultiTrack Master Reel > DAT > Sonic Solutions > CD

Disc 1

~~Set 1
BG Introduction   
Promised Land    
Mississippi Half Step Uptown Toodleoo
Black Throated Wind 
Friend of the Devil 
Jack Straw 
Loser 
El Paso 
technical difficulty
China Cat Sunflower > 
I Know You Rider 
Me and My Uncle 
It Must Have Been the Roses 

Disc 2

Weather Report: Prelude > Part 1 > 
Let it Grow 
~~Set 2
Scarlet Begonias  
Big River  
Ramble On Rose
Mexicali Blues 

Disc 3

He's Gone > 
The Other One >
Spanish Jam >
Mind Left Body Jam  > 
The Other One > 
Stella Blue 
Sugar Magnolia
~~Encore
Casey Jones
US Blues (missing)

Tape Notes:
-"pause edits" in set 1 between several songs.
 
-Rider is patched with unknown source from ~3:34 thru 4:54

-As in many of the other concerts in this period, periodic
buzzing noises from PA are captured on recording.  (these existed 
on both sources that were used to compile this show)

Some minor wave edits, EAC, SHN, and upload by Steve Barbella, March, 2003
More significant CoolEdits by Matt Vernon
EAC secure test and copy, offsets configured, no errors reported
Tracks indexed via CDWave
shns via mkw v.97 seek enabled
shntool verified sector boundaries were fine. 

SS Source discs contributed by Rich Danyko.  
Alternate sbd source (sbd reel>dat) supplies
Ramble On Rose, Casey Jones, and some short tuneup segments in set 1

Another installaSHN of The Music Never Stopped Project

"the bus came by and Skins got on, that's when it all began" 
what a way to start, dude.  enjoy-


SHNTOOL OUTPUT:
    length     expanded size   cdr  WAVE problems filename
     0:27.56        4894556    ---   --   ---xx   gd74-10-17newd1t01.shn
     3:48.51       40339196    ---   --   ---xx   gd74-10-17newd1t02.shn
     8:01.67       85006028    ---   --   ---xx   gd74-10-17newd1t03.shn
     7:05.14       75002972    ---   --   ---xx   gd74-10-17newd1t04.shn
     4:13.16       44666876    ---   --   ---xx   gd74-10-17newd1t05.shn
     5:28.37       57946268    ---   --   ---xx   gd74-10-17newd1t06.shn
     5:56.49       62913692    ---   --   ---xx   gd74-10-17newd1t07.shn
     4:15.63       45130220    ---   --   ---xx   gd74-10-17newd1t08.shn
     1:30.29       15944252    ---   --   ---xx   gd74-10-17newd1t09.shn
     9:17.20       98301884    ---   --   ---xx   gd74-10-17newd1t10.shn
     5:52.44       62196332    ---   --   ---xx   gd74-10-17newd1t11.shn
     3:13.52       34167548    ---   --   ---xx   gd74-10-17newd1t12.shn
     6:04.56       64341356    ---   --   ---xx   gd74-10-17newd1t13.shn
     5:54.01       62447996    ---   --   ---xx   gd74-10-17newd2t01.shn
    11:13.21      118766636    ---   --   ---xx   gd74-10-17newd2t02.shn
    10:55.47      115652588    ---   --   ---xx   gd74-10-17newd2t03.shn
     4:17.63       45483020    ---   --   ---xx   gd74-10-17newd2t04.shn
     5:25.00       57330044    ---   --   ---xx   gd74-10-17newd2t05.shn
     3:37.69       38441132    ---   --   ---xx   gd74-10-17newd2t06.shn
    13:12.28      139774700    ---   --   ---xx   gd74-10-17newd3t01.shn
    22:54.72      242542988    ---   --   ---xx   gd74-10-17newd3t02.shn
     2:01.19       21389132    ---   --   ---xx   gd74-10-17newd3t03.shn
     3:04.66       32612876    ---   --   ---xx   gd74-10-17newd3t04.shn
     2:28.46       26215436    ---   --   ---xx   gd74-10-17newd3t05.shn
     8:21.51       88496396    ---   --   ---xx   gd74-10-17newd3t06.shn
     9:06.34       96394412    ---   --   ---xx   gd74-10-17newd3t07.shn
     7:19.31       77512556    ---   --   ---xx   gd74-10-17newd3t08.shn
   175:09.52     1853911092 B                     (totals for 27 files, 0.5409 overall compression ratio)

MD5:
ac7ff27ed2c91cbcf05781ac5f56bd0b *gd74-10-17newd2t01.shn
522ebe3eb51162cfe6b4e4c05aef31a0 *gd74-10-17newd1t02.shn
8a33d7160ed6e1810358d1ba7a57abc1 *gd74-10-17newd1t03.shn
0638b7c935b6a47342811d25fc3a8083 *gd74-10-17newd1t04.shn
e7a08b83b7ba8e4c552941bfb66e3a0e *gd74-10-17newd1t05.shn
d9d1bf7f30019fa09103dabc8b024097 *gd74-10-17newd1t06.shn
6327017d8d4e325ff4a325dfd73e0230 *gd74-10-17newd1t07.shn
6ca544beff6965626a989a1fe5ff0493 *gd74-10-17newd1t08.shn
ed95dcc704e3a65e163c72cd99f1d474 *gd74-10-17newd1t09.shn
70137265fc1b5fed8b10d76b3bf5dc4b *gd74-10-17newd1t10.shn
533c3141004acbe9fe7abd72db71428f *gd74-10-17newd1t11.shn
fe264a8e70f31bdf229f2c59ebbeb625 *gd74-10-17newd1t12.shn
10292d0a7a72a92d940b7d5750985a15 *gd74-10-17newd1t13.shn
ebfbfcdde38921ff3c9eb7d34eb3476b *gd74-10-17newd1t01.shn
fc76cddb0e884687be2ebe29fcd7dc8a *gd74-10-17newd2t02.shn
3d9f5b7fd5ddb4e68986c890a5e22f56 *gd74-10-17newd2t03.shn
f9c4d84196618636460d9e908a73357d *gd74-10-17newd2t04.shn
017c00924b8304ec4a8208d1c2118678 *gd74-10-17newd2t05.shn
fb73a596c9632c1e15165a5b9b758621 *gd74-10-17newd2t06.shn
9d8bc7250b732d5a39c920180a69870c *gd74-10-17newd3t01.shn
850dc75fc7921c63ee768414a2bfff3f *gd74-10-17newd3t02.shn
c6d129979fd00bfa69248b5dc664c7f0 *gd74-10-17newd3t03.shn
e51e4aa80e94b180b10b0e37055e7086 *gd74-10-17newd3t04.shn
3e00f6e6695506e875295b419e309006 *gd74-10-17newd3t05.shn
151462849f6a1c97416709459cc9b90a *gd74-10-17newd3t06.shn
f3a9cf14cfff042381366479242b4198 *gd74-10-17newd3t07.shn
313917e30361b499bb82faf3fb92dc57 *gd74-10-17newd3t08.shn



More information about the bittorrent mailing list