[bittorrent] Widespread Panic 2007-07-18 Boston MA mk-41

Automated Mailer noreply-bt.e at etree.org
Fri Jul 20 16:25:06 MDT 2007


Band:           Other
Torrent Name:   Widespread Panic 2007-07-18 Boston MA  mk-41
Uploaded by:    nhteamfocker
DB Link:        
Details:        http://bt.etree.org/details.php?id=508357

Contact the seeder at http://db.etree.org/nhteamfocker

If the link to this show does not work, it was probably removed for
being non-trade-friendly.

Description / text file:
-------------------------
Widespread Panic
07/18/07 
Fleet Pavilion, Boston, MA 
 

Source:

Schoeps CMC-6 / MK-41 > Lunatec V-3 > Tascam HD-P2 (2496) > 
Sony Soundforge 8.0 (Dither/Resample 1644) > CD Wave > Flac
(XY, FOB, Right of Center)

Taped and converted by Patrick Price
patrickprice at comcast.net


Setlist:

Set 1: 
Disc 1

1.  Tuning
2.  Chainsaw City
3.  Little Lilly > 
4.  Walkin' (for your love)
5.  Down
6.  Tickle the Truth Into Submission
7.  Can't Get High > 
8.  Bear's Gone Fishing > 
9.  Hatfield > 
10. Blackout Blues

Set 2
Disc 2

1.  Tuning
2.  B of D >
3.  One Arm Steve >
4.  Thin Air (Smells Like Mississippi) > 
5.  Love Tractor
6.  Pickin' Up The Pieces
7.  Stop Go

Disc 3

1.  All Time Low
2.  Junior  
3.  Encore Break

E: 

4.  Me and The Devil > 
5.  Porch Song
6.  Going Out West  


Flac Fingerprint:

wsp2007-07-18d1t01.flac:72f38e0ab8ed899b1abe0a98d6cde8fb
wsp2007-07-18d1t02.flac:799bfc571c6734efe25d32b5b5abbce1
wsp2007-07-18d1t03.flac:fab84a37aff03af29888693497abed36
wsp2007-07-18d1t04.flac:de05291daa8b705a33096a9e45c49a69
wsp2007-07-18d1t05.flac:4a6f2b2c9839206f3a6ea81c6273b3dd
wsp2007-07-18d1t06.flac:c3b0ac4fe8da323fcf32fbca98e6a820
wsp2007-07-18d1t07.flac:cac5a2b8cfeefce81a3f87c0def27685
wsp2007-07-18d1t08.flac:012cae2a708d6fde216ae65b1a76c92f
wsp2007-07-18d1t09.flac:bae0bcdf8b9f5a40e572cbd585e16c1f
wsp2007-07-18d1t10.flac:a0e1c847c8be648984ddeed7e80af07b
wsp2007-07-18d2t01.flac:694ddedfab51ed88d840162c5018b291
wsp2007-07-18d2t02.flac:15a3c3642abcba533d4329346db6cc44
wsp2007-07-18d2t03.flac:7cf100075532a4b47bf41d81701f06d3
wsp2007-07-18d2t04.flac:127b510d42e628e7e073b5e4b5956d1c
wsp2007-07-18d2t05.flac:7c1945a269ababbb8607fb11d3b97c75
wsp2007-07-18d2t06.flac:41e7f692cfe8e062130f9e64e0d2dda9
wsp2007-07-18d2t07.flac:b177f55e3b8547489293ee211acffeb5
wsp2007-07-18d3t01.flac:5c1e648cdb97e1140553a996034a37e3
wsp2007-07-18d3t02.flac:1305cacd1c65b3c067f151b02da746da
wsp2007-07-18d3t03.flac:10bf124a91a251724e6979655fad3b25
wsp2007-07-18d3t04.flac:f099dea8ce460f052b651c938f49b289
wsp2007-07-18d3t05.flac:df884629fc7ff5bfca0cb160cc3d08ec
wsp2007-07-18d3t06.flac:b198ca7f76d132120b637f28cb8ed38f

Shntool:

    length     expanded size   cdr  WAVE problems filename
     0:46.03        8121500    ---   --   ---xx   wsp2007-07-18d1t01.flac
     9:56.03      105141500    ---   --   ---xx   wsp2007-07-18d1t02.flac
     7:46.09       82223612    ---   --   ---xx   wsp2007-07-18d1t03.flac
     5:36.69       59432732    ---   --   ---xx   wsp2007-07-18d1t04.flac
     6:04.59       64348412    ---   --   ---xx   wsp2007-07-18d1t05.flac
     5:36.55       59399804    ---   --   ---xx   wsp2007-07-18d1t06.flac
     3:38.32       38530508    ---   --   ---xx   wsp2007-07-18d1t07.flac
     8:10.34       86516012    ---   --   ---xx   wsp2007-07-18d1t08.flac
    14:37.40      154796924    ---   --   ---xx   wsp2007-07-18d1t09.flac
     8:30.12       89992268    ---   --   ---xx   wsp2007-07-18d1t10.flac
     1:33.63       16553420    ---   --   ---xx   wsp2007-07-18d2t01.flac
     3:25.49       36277292    ---   --   ---xx   wsp2007-07-18d2t02.flac
    13:28.73      142702940    ---   --   ---xx   wsp2007-07-18d2t03.flac
     9:21.01       98962796    ---   --   ---xx   wsp2007-07-18d2t04.flac
     5:55.67       62779628    ---   --   ---xx   wsp2007-07-18d2t05.flac
     8:00.26       84733196    ---   --   ---xx   wsp2007-07-18d2t06.flac
    13:49.40      146329724    ---   --   ---xx   wsp2007-07-18d2t07.flac
     4:38.42       49138028    ---   --   ---xx   wsp2007-07-18d3t01.flac
     5:42.66       60484076    ---   --   ---xx   wsp2007-07-18d3t02.flac
     3:59.00       42159644    ---   --   ---xx   wsp2007-07-18d3t03.flac
     6:21.22       67260188    ---   --   ---xx   wsp2007-07-18d3t04.flac
     3:10.11       33541916    ---   --   ---xx   wsp2007-07-18d3t05.flac
     6:36.59       69993212    ---   --   ---xx   wsp2007-07-18d3t06.flac
   156:47.10        1582.55 MB                    (totals for 23 files, 0.5273 overall compression ratio)





More information about the bittorrent mailing list