[bittorrent] Grateful Dead - 7/6/1986 - RFK Stadium, Washington DC - Senn 441 Adelman-Koucky MAC transfer via the Green Mtn Bros

Automated Mailer noreply-bt.e at etree.org
Thu Jul 19 23:13:46 MDT 2007


Band:           Grateful Dead
Torrent Name:   Grateful Dead - 7/6/1986 - RFK Stadium, Washington DC - Senn 441 Adelman-Koucky MAC transfer via the Green Mtn Bros
Uploaded by:    neo_levo
DB Link:        
Details:        http://bt.etree.org/details.php?id=508339

Contact the seeder at http://db.etree.org/neo_levo

If the link to this show does not work, it was probably removed for
being non-trade-friendly.

Description / text file:
-------------------------
Grateful Dead
07/06/1986
RFK Stadium 
Washington, DC  

Source:  FOB Sennheiser 441s > Sony D5 > MAC (TDK MA90s).  Taped by B.Koucky, patched from S.Adelman.
Transfer:  MAC playback on Nakamich CR-7A, azimuth adjusted > Lunatec V3 > LynxTwo > PC (Wavelab 5) > HD @ 24 bit/96 KHz) > Ozone 3 > 16/44.1 FLAC by Chris L.
Seeded by the Green Mtn Bros @ bt.etree.org, July 2007.

Disc I - Set I
01  "Bobby's experiencing a little difficulty with his electric guitar..."
02  Hell In A Bucket
03  Sugaree
04  Me And My Uncle > 
05  Big River
06  Row Jimmy
07  Cassidy
08  Althea
09  Let It Grow 

Disc II - Set II
01  crowd/Bob
02  Saint Of Circumstance
03  Iko Iko
04  Looks Like Rain >
05  He's Gone >
06  Drums >
07  Space >
08  Stella Blue >
09  Throwing Stones >
10  Not Fade Away
Encore
11  Brokedown Palace 

Comments:
Moderate up close crowd noise at times.
Flip in Space x-faded.
This is a different source than the previously circulating source.
Some minimal analog peaking during Drums.

SHNTOOL LEN OUTPUT:
    length     expanded size   cdr  WAVE problems filename
     1:23.51       14761196    ---   --   ---xx   gd1986-07-06d1t01.flac
     6:15.63       66298220    ---   --   ---xx   gd1986-07-06d1t02.flac
     9:39.69      102297932    ---   --   ---xx   gd1986-07-06d1t03.flac
     2:58.34       31479212    ---   --   ---xx   gd1986-07-06d1t04.flac
     6:49.10       72171164    ---   --   ---xx   gd1986-07-06d1t05.flac
     8:44.53       92558300    ---   --   ---xx   gd1986-07-06d1t06.flac
     5:58.01       63153596    ---   --   ---xx   gd1986-07-06d1t07.flac
     7:03.59       74756012    ---   --   ---xx   gd1986-07-06d1t08.flac
    11:24.39      120749372    ---   --   ---xx   gd1986-07-06d1t09.flac
     1:30.25       15934844    ---   --   ---xx   gd1986-07-06d2t01.flac
     6:10.29       65336252    ---   --   ---xx   gd1986-07-06d2t02.flac
     6:48.13       72001820    ---   --   ---xx   gd1986-07-06d2t03.flac
     7:14.30       76628204    ---   --   ---xx   gd1986-07-06d2t04.flac
    10:17.15      108874124    ---   --   ---xx   gd1986-07-06d2t05.flac
     9:09.11       96869516    ---   --   ---xx   gd1986-07-06d2t06.flac
     5:15.63       55714220    ---   --   ---xx   gd1986-07-06d2t07.flac
     6:21.23       67262540    ---   --   ---xx   gd1986-07-06d2t08.flac
     8:53.10       94044764    ---   --   ---xx   gd1986-07-06d2t09.flac
     6:45.10       71465564    ---   --   ---xx   gd1986-07-06d2t10.flac
     5:33.54       58868252    ---   --   ---xx   gd1986-07-06d2t11.flac
   134:16.62     1421225104 B                     (totals for 20 files, 0.5727 overall compression ratio)

There were no sector boundary errors.

md5
452d06e752c9a96f51c3add3878eb8ee *gd1986-07-06d1t01.flac
f2f0194f0021ab4f6f9c1cab25847c5e *gd1986-07-06d1t02.flac
0ee045cf905995360b0f4a5ac5737b4d *gd1986-07-06d1t03.flac
54cd174e480e7c447f088f70bec2d9cd *gd1986-07-06d1t04.flac
11164d18b4fdb6fe4d817f58b3221222 *gd1986-07-06d1t05.flac
ff354dc1a4b56719de64437fe87180d9 *gd1986-07-06d1t06.flac
db5afc5492185b179b38a5d88f793f70 *gd1986-07-06d1t07.flac
5e1ed07f59133295a20b00686c853d00 *gd1986-07-06d1t08.flac
d8cf6a975741c67e9064aef0e61b5093 *gd1986-07-06d1t09.flac
21dc90d599929e503418b7c22f133188 *gd1986-07-06d2t01.flac
6d559db106c993c2918c3a5b82649d6c *gd1986-07-06d2t02.flac
9d7e001f0e8fde4a1281ad93e480b219 *gd1986-07-06d2t03.flac
d9ac689f6a8c4e5b200e610fe5c5b873 *gd1986-07-06d2t04.flac
708e8dadbdebf520bb3f2eb3f18d91b8 *gd1986-07-06d2t05.flac
45526a234a7e2f7318eaab68b65ff3b0 *gd1986-07-06d2t06.flac
487e068ff36933152b6773810e4bed3c *gd1986-07-06d2t07.flac
8ea073955133b0285319ac36b2215079 *gd1986-07-06d2t08.flac
913c3e3f0d0d06e4eb61526178310792 *gd1986-07-06d2t09.flac
1bfc598d87b38e0a9a1d70e1c5cd34b5 *gd1986-07-06d2t10.flac
080b14faf07c42078e6a26d4a0570ac2 *gd1986-07-06d2t11.flac

ffp
gd1986-07-06d1t01.flac:5e0f84b51c140fe3c12bcbab7d6876b5
gd1986-07-06d1t02.flac:1ec6ce2914f85f45575bad3a1a6dd6d8
gd1986-07-06d1t03.flac:8fc9ca02b1ccd6ab130e92d1446437f9
gd1986-07-06d1t04.flac:0c6ff49a4a3780cb6e6aebc8af4f01df
gd1986-07-06d1t05.flac:29b506b00da11624d60b4ad50f636286
gd1986-07-06d1t06.flac:53bb4713fd8842b85ebb00e85dbb2b61
gd1986-07-06d1t07.flac:bd77328cecc445a0b46778547bcc6599
gd1986-07-06d1t08.flac:61aaa3c25c4e1d2fe62d520570c6037c
gd1986-07-06d1t09.flac:74196254abaa9bc6b5d25634a946d528
gd1986-07-06d2t01.flac:bb00c94aeb3d1fdcd2055419582620e9
gd1986-07-06d2t02.flac:8e483eba0da93b56311e9a205170abc3
gd1986-07-06d2t03.flac:ec10a2f919a3a71e0772e3e8b369a5f5
gd1986-07-06d2t04.flac:349675055fac7a189a07ffaaa6f6a840
gd1986-07-06d2t05.flac:620da2767ab307b6213690d57ac91c8c
gd1986-07-06d2t06.flac:1ce61fa77e5b627e298fa4ea449e2cd1
gd1986-07-06d2t07.flac:b5d54783ec2a900ca903cb3acc3cf4e4
gd1986-07-06d2t08.flac:2578126ea87769e0fbcfd7a6ac4184ed
gd1986-07-06d2t09.flac:899eca92878afc7bcbb5d5f91345dbb1
gd1986-07-06d2t10.flac:e1c18ea7f94697df0e45a2479e23c371
gd1986-07-06d2t11.flac:329b732a880c045d532fc9ad3cefc91f




More information about the bittorrent mailing list