[bittorrent] Grateful Dead (-: *68* :-) Carousel Ballroom, San Francisco CA 03/16/68 [SBD.9388]

Automated Mailer noreply-bt.e at etree.org
Wed Jul 18 08:25:11 MDT 2007


Band:           Grateful Dead
Torrent Name:   Grateful Dead (-: *68* :-) Carousel Ballroom, San Francisco CA 03/16/68 [SBD.9388]
Uploaded by:    SteveSw
DB Link:        http://db.etree.org/shn/9388
Details:        http://bt.etree.org/details.php?id=508298

Contact the seeder at http://db.etree.org/SteveSw

If the link to this show does not work, it was probably removed for
being non-trade-friendly.

Description / text file:
-------------------------
(-: *68* :-)

BAND	Grateful Dead
VENUE	Carousel Ballroom
CITY	San Francisco
STATE	CA
DATE	03/16/68

Source: SBD>MR>C>DAT>CDR
Conversion: CDR > EAC(secure) > Cool Edit(minor fixes) > CDWav(retracking) > mkwact(seekable) mvernon54 at attbi.com
shntool confirms tracks on sector boundaries
Part of The Music Never Stopped Project 2002 shn em up initiative 5/14/02
Thanks to Raoul Duke for the disks!

Disk 1 [35:49]
SET1	
01. [07:24] Dark Star // > 
02. [03:31] China Cat Sunflower > 
03. [14:37] The Eleven > 
04. [10:15]Good Morning Little Schoolgirl

Disk 2 [47:20]
SET2	
01. [04:20] It Hurts Me Too ; 
02. [01:54] Cryptical Envelopment > 
03. [03:19] The Other One > 
04. [01:07] Cryptical Envelopment //
05. [14:01] //Alligator > 
06. [11:26] Caution (Do Not Stop On Tracks) 
07. [02:32] //Feedquack ; 
08. [01:22] And We Bid You Good Night
ENCORE	
09. [07:14] (fades in) Morning Dew

Notes:
1. d1t3 ~8:09 very brief drop out;~11:01 several very brief partial drop outs
2. d2t5 ~ brief diginose ~ 4:56
3. This show has a pH of 1!! 
4. Dark Star > China Cat > Eleven is found on the SMR box set. 


Fingerprint:

84b0efa580020ed2da5fea6225585aba *gd68-03-16d1t01.shn
52f88eb672d3fa63bd8bbf322ae60baf *gd68-03-16d1t02.shn
097c194c42762eedf09fde843ce871f5 *gd68-03-16d1t03.shn
f76fe0b09ca727b8e068487017e15258 *gd68-03-16d1t04.shn
255a11a58c8f552b836d0e56e2c85daf *gd68-03-16d2t01.shn
b33496bd00c7df06a7c81e9b44d27417 *gd68-03-16d2t02.shn
2f0c1b09835e81262be755f9fee52a4c *gd68-03-16d2t03.shn
92c8f6927f83aee82e56c2b0977af50c *gd68-03-16d2t04.shn
e3396407c12c4667d0b29333e850289d *gd68-03-16d2t05.shn
11c1d495eaa352e4f79698861f7d28ec *gd68-03-16d2t06.shn
d1e97386e60e24336ece7341295cfb4c *gd68-03-16d2t07.shn
ee0a4ae197e409262f719f2da1cd8a7d *gd68-03-16d2t08.shn
9c785396b57a7fe2ff2d5067933a6133 *gd68-03-16d2t09.shn


Compression:

    length     expanded size   cdr  WAVE problems filename
     7:24.63       78469820    ---   --   ---xx   gd68-03-16d1t01.shn
     3:31.52       37342748    ---   --   ---xx   gd68-03-16d1t02.shn
    14:37.52      154825148    ---   --   ---xx   gd68-03-16d1t03.shn
    10:15.35      108568364    ---   --   ---xx   gd68-03-16d1t04.shn
     4:20.05       45875804    ---   --   ---xx   gd68-03-16d2t01.shn
     1:54.60       20250764    ---   --   ---xx   gd68-03-16d2t02.shn
     3:19.67       35261228    ---   --   ---xx   gd68-03-16d2t03.shn
     1:07.72       11988188    ---   --   ---xx   gd68-03-16d2t04.shn
    14:01.20      148399484    ---   --   ---xx   gd68-03-16d2t05.shn
    11:26.70      121175084    ---   --   ---xx   gd68-03-16d2t06.shn
     2:32.04       26822252    ---   --   ---xx   gd68-03-16d2t07.shn
     1:22.20       14511884    ---   --   ---xx   gd68-03-16d2t08.shn
     7:14.67       76715228    ---   --   ---xx   gd68-03-16d2t09.shn
    83:09.62      880205996 B                     (totals for 13 files, 0.6222 overall compression ratio)







More information about the bittorrent mailing list