[bittorrent] Grateful Dead - Winterland Arena, San Francisco, CA - 10/20/74 [SBD.229]

Automated Mailer noreply-bt.e at etree.org
Mon Jul 16 15:40:54 MDT 2007


Band:           Grateful Dead
Torrent Name:   Grateful Dead - Winterland Arena, San Francisco, CA - 10/20/74 [SBD.229]
Uploaded by:    cletus_boy
DB Link:        http://db.etree.org/shn/229
Details:        http://bt.etree.org/details.php?id=508257

Contact the seeder at http://db.etree.org/cletus_boy

If the link to this show does not work, it was probably removed for
being non-trade-friendly.

Description / text file:
-------------------------
Grateful Dead
Winterland 
San Francisco, CA
10.20.74

disc 1
------
* Cold Rain and Snow
Mama Tried
Deal
Beat it on down the Line
Loser
Jack Straw
Tennesse Jed
El Paso
Brokedown Palace
China Cat Sunflower
I Know You Rider
Around and Around

disc 2
------ 
Playin' in the Band
Drums
Not Fade Away
Drums
The Other One
Wharf Rat
Playin' in the Band

disc 3
------
 Good Lovin'
 It Must Have Been the Roses
 Promised Land
 Eyes of the World
 Stella Blue
** Sugar Magnolia
** Johnny B. Goode
*** Mississippi Half-Step Uptown Toodeloo
*** And We Bid You Good Night

disc 4
------
Seastones (part A)
Seastones (part B)

(NOTE: Seastones was played between Set 1 and Set 2)

 
* slight splice during Cold Rain and Snow at 1:38.
** different source: unknown aud rig>Reel Master>dat
*** different source: unknown aud rig>?>dat, not as good as the first.
 
dfinney at cts.com


SHNTOOL OUTPUT:
    length     expanded size   cdr  WAVE problems filename
     6:06.23       64616540    ---   --   ---xx   gd74-10-20d1t01.shn
     2:40.65       28376924    ---   --   ---xx   gd74-10-20d1t02.shn
     4:57.17       52430828    ---   --   ---xx   gd74-10-20d1t03.shn
     3:28.24       36747692    ---   --   ---xx   gd74-10-20d1t04.shn
     7:15.11       76759916    ---   --   ---xx   gd74-10-20d1t05.shn
     5:42.20       60375884    ---   --   ---xx   gd74-10-20d1t06.shn
     8:18.43       87948380    ---   --   ---xx   gd74-10-20d1t07.shn
     4:12.68       44612780    ---   --   ---xx   gd74-10-20d1t08.shn
     6:30.01       68798396    ---   --   ---xx   gd74-10-20d1t09.shn
     8:51.41       93764876    ---   --   ---xx   gd74-10-20d1t10.shn
     5:33.19       58785932    ---   --   ---xx   gd74-10-20d1t11.shn
     5:26.49       57621692    ---   --   ---xx   gd74-10-20d1t12.shn
    13:04.20      138344684    ---   --   ---xx   gd74-10-20d2t01.shn
     4:07.54       43697852    ---   --   ---xx   gd74-10-20d2t02.shn
    13:45.03      145537100    ---   --   ---xx   gd74-10-20d2t03.shn
     4:52.50       51626444    ---   --   ---xx   gd74-10-20d2t04.shn
    10:52.70      115177484    ---   --   ---xx   gd74-10-20d2t05.shn
     8:41.18       91946780    ---   --   ---xx   gd74-10-20d2t06.shn
     6:25.47       68024588    ---   --   ---xx   gd74-10-20d2t07.shn
    12:06.37      128153468    ---   --   ---xx   gd74-10-20d3t01.shn
     5:43.01       60507596    ---   --   ---xx   gd74-10-20d3t02.shn
     3:14.09       34242812    ---   --   ---xx   gd74-10-20d3t03.shn
    14:40.44      155335532    ---   --   ---xx   gd74-10-20d3t04.shn
     8:33.47       90603788    ---   --   ---xx   gd74-10-20d3t05.shn
     8:10.38       86525420    ---   --   ---xx   gd74-10-20d3t06.shn
     4:21.55       46169804    ---   --   ---xx   gd74-10-20d3t07.shn
     7:12.68       76364780    ---   --   ---xx   gd74-10-20d3t08.shn
     1:55.54       20413052    ---   --   ---xx   gd74-10-20d3t09.shn
    27:26.68      290514380    ---   --   ---xx   gd74-10-20SeastonesA.shn
    12:58.69      137401532    ---   --   ---xx   gd74-10-20SeastonesB.shn
   237:17.08     2511426936 B                     (totals for 30 files, 0.5462 overall compression ratio)

MD5:
e6d9ba3ec7a3130caa47854f64189d9b *gd74-10-20d1t01.shn
f79f55dd49e7a286d042f3f47b49fee1 *gd74-10-20d1t02.shn
ac9ff3a094ec70ed68655af6d1cdc822 *gd74-10-20d1t03.shn
7ca0325ac24e1826725d6927c75732ae *gd74-10-20d1t04.shn
0b8a78a320429353a3a86d6f3391e699 *gd74-10-20d1t05.shn
8d6b2db65e498950b82ce71863daab48 *gd74-10-20d1t06.shn
45a98fe22010f9b339cf831aa75a8254 *gd74-10-20d1t07.shn
cbd22929f9356320650528496ad8dc2e *gd74-10-20d1t08.shn
6feaf707f65d448a5d178afc0820c814 *gd74-10-20d1t09.shn
cf2a6f2c54a06d1f981fe1fcd5ae01d7 *gd74-10-20d1t10.shn
ab642e615e2c7d8d269eed7e2deb3c47 *gd74-10-20d1t11.shn
712cccf395260d6b6b869da58b49670b *gd74-10-20d1t12.shn
24bf1bd4e1b94661610f45f590159515 *gd74-10-20d2t01.shn
572d521d2ece6acc9e84c0f152846a6a *gd74-10-20d2t02.shn
d4610c18808a98cc8ca406d2be4e0519 *gd74-10-20d2t03.shn
f4aea3ccc264cfa88b575eb6b8d55db7 *gd74-10-20d2t04.shn
59caef06f423922768bca0e689db6a89 *gd74-10-20d2t05.shn
f1bfcd7b4a0e5fe3742cb0fc7b83318c *gd74-10-20d2t06.shn
600441b03d05b937d4180caf80178e48 *gd74-10-20d2t07.shn
fe50ccbdb96c1a04234b584f1d7b5052 *gd74-10-20d3t01.shn
04bbd7b4683379296028bc4283bef545 *gd74-10-20d3t02.shn
18d4de13cd7d4e9eec9351b1dd90c22b *gd74-10-20d3t03.shn
964fe314d6d84c195e0b7f8b1d520a42 *gd74-10-20d3t04.shn
d71939c88a2e928d14b23e78a42504f7 *gd74-10-20d3t05.shn
494998b3c5a468f0435b51f4624a4902 *gd74-10-20d3t06.shn
324bcc605178742b9319512f5fc9d478 *gd74-10-20d3t07.shn
baedb60d7ac94d4ec4acd2d0348471f3 *gd74-10-20d3t08.shn
c1a9da63e0f7ec00067d2e869add9775 *gd74-10-20d3t09.shn
0ab757f9b64cf7e437d3ba9cff1b4ac4 *gd74-10-20SeastonesA.shn
8370b1ef8cb2762a853e2df5b0b6463f *gd74-10-20SeastonesB.shn



More information about the bittorrent mailing list