[bittorrent] Grateful Dead - The Mecca, Milwaukee, WI - 4/16/89 - [sbd.walker-scotton-miller.81703]

Automated Mailer noreply-bt.e at etree.org
Mon Jul 16 00:59:53 MDT 2007


Band:           Grateful Dead
Torrent Name:   Grateful Dead - The Mecca, Milwaukee, WI - 4/16/89 - [sbd.walker-scotton-miller.81703]
Uploaded by:    eddietandy
DB Link:        http://db.etree.org/shn/81703
Details:        http://bt.etree.org/details.php?id=508247

Contact the seeder at http://db.etree.org/eddietandy

If the link to this show does not work, it was probably removed for
being non-trade-friendly.

Description / text file:
-------------------------
Grateful Dead - April 16, 1989
The Mecca - Milwaukee, WI

Recording Info:
SBD -> Cassette Master (TDK MA-XG90)

Transfer Info:
Cassette Master (Tascam 122mkII) -> Apogee MiniMe (24bit/48k) ->
Samplitude Professional v8.01 -> FLAC/16
(2 Discs Audio / 2 Discs FLAC)

All Transfers and Mastering By Charlie Miller
charliemiller87 at earthlink.net
December 17, 2006

Notes:
-- 2nd Set is seamless
-- Thanks to Paul Scotton and Joani Walker for the tapes

Set 1:
d1t01 - Tuning
d1t02 - Hell In A Bucket ->
d1t03 - They Love Each Other
d1t04 - Little Red Rooster
d1t05 - Stagger Lee
d1t06 - Mama Tried ->
d1t07 - Mexicali Blues
d1t08 - Bird Song

Set 2:
d1t09 - Scarlet Begonias ->
d1t10 - Fire On The Mountain
d2t01 - Saint Of Circumstance
d2t02 - Truckin' ->
d2t03 - Drums ->
d2t04 - Space ->
d2t05 - The Other One ->
d2t06 - Stella Blue ->
d2t07 - Throwing Stones ->
d2t08 - Turn On Your Lovelight

Encore:
d2t09 -	Box Of Rain


SHNTOOL OUTPUT:
    length     expanded size   cdr  WAVE problems filename
     1:37.27       17174348    ---   --   -----   gd89-04-16d1t01.wav
     6:14.24       66030092    ---   --   -----   gd89-04-16d1t02.wav
     6:51.22       72552188    ---   --   -----   gd89-04-16d1t03.wav
     9:33.30      101147804    ---   --   -----   gd89-04-16d1t04.wav
     6:10.10       65291564    ---   --   -----   gd89-04-16d1t05.wav
     2:39.34       28127612    ---   --   -----   gd89-04-16d1t06.wav
     4:54.27       51925148    ---   --   -----   gd89-04-16d1t07.wav
    11:29.66      121694876    ---   --   -----   gd89-04-16d1t08.wav
     8:58.71       95070236    ---   --   -----   gd89-04-16d1t09.wav
    10:49.18      114525980    ---   --   -----   gd89-04-16d1t10.wav
     6:07.25       64797644    ---   --   -----   gd89-04-16d2t01.wav
     8:18.06       87861356    ---   --   -----   gd89-04-16d2t02.wav
     8:12.13       86819420    ---   --   -----   gd89-04-16d2t03.wav
     6:33.03       69332300    ---   --   -----   gd89-04-16d2t04.wav
     6:55.00       73206044    ---   --   -----   gd89-04-16d2t05.wav
     8:07.07       85923308    ---   --   -----   gd89-04-16d2t06.wav
     9:38.56      102090956    ---   --   -----   gd89-04-16d2t07.wav
     8:26.16       89296076    ---   --   -----   gd89-04-16d2t08.wav
     5:24.20       57200684    ---   --   -----   gd89-04-16d2t09.wav
   137:00.25     1450067636 B                     (totals for 19 files)


MD5:
e316efce84ce4d6be2df776138a3642e *gd89-04-16d1t01.flac
abc8475e7809acab9c05c66dd4d7352b *gd89-04-16d1t02.flac
789f0d6d1406042ed9da712ce6b87185 *gd89-04-16d1t03.flac
a0af93ac14568afa7ecebd580d64b51e *gd89-04-16d1t04.flac
82c5f83e536b013e710a935ae7b11f83 *gd89-04-16d1t05.flac
79693c7b27a3bf0a9479a22d417ecc83 *gd89-04-16d1t06.flac
df3a715f7515503f7f5ec683fb0e5a7a *gd89-04-16d1t07.flac
19d72a17141d90abf0d1885946c1ec43 *gd89-04-16d1t08.flac
e5cb0930cf700c6fc3fff9b1539db962 *gd89-04-16d1t09.flac
dc65fb5e607f74289821a0595429f2b6 *gd89-04-16d1t10.flac
b21c0917c40aa7dc9c9f7a12ec3f76ad *gd89-04-16d2t01.flac
1237161261b192e2a5631a6e6912b34d *gd89-04-16d2t02.flac
85261f794a6626b352fc477075d8b83e *gd89-04-16d2t03.flac
a1eba705cc9abf6aba5000c3faee2fbd *gd89-04-16d2t04.flac
4cef2fdebd3cacd6360685bb4e456da1 *gd89-04-16d2t05.flac
013121baa478595190730c0021597bed *gd89-04-16d2t06.flac
6d987b5636cc49f0e2c0ec579ff14424 *gd89-04-16d2t07.flac
39b3fa7b48f8b0d4a221f996b79d040d *gd89-04-16d2t08.flac
b53d81c569ac9ae08338f3e7353635d7 *gd89-04-16d2t09.flac

FFP:
gd89-04-16d1t01.flac:5761e840930f66719b49cd4218925ec3
gd89-04-16d1t02.flac:6b6875d500c71d743637235db9ea2082
gd89-04-16d1t03.flac:06dec85d6fd4e9e49a4e2e92fa66f399
gd89-04-16d1t04.flac:ac22c2f3a34d84e90ec94c221a4949c3
gd89-04-16d1t05.flac:0cf9f5533e44bd5009a67250007f3141
gd89-04-16d1t06.flac:ab09f21f5d612a1be08fd87cfe5e2752
gd89-04-16d1t07.flac:a567ec1aa8bb8fb7f8c6ca360766c9c6
gd89-04-16d1t08.flac:5e9583856b3e1eda775238d59e8a6b23
gd89-04-16d1t09.flac:d0d0dc17aca76ca994f924d1df984fc0
gd89-04-16d1t10.flac:06fbd9995beaf7a0cb4b49ec7ac0fa8a
gd89-04-16d2t01.flac:bb6db70f4ba0595a67acb8af44627b51
gd89-04-16d2t02.flac:287cfefe2d40ae4e17c3c8cab6ec3824
gd89-04-16d2t03.flac:e464e5e7463455d68f6b75df91d601a3
gd89-04-16d2t04.flac:eb02adc79a803bdae5c1032d50212f3f
gd89-04-16d2t05.flac:1f2e12b87f73dff9d85cf2d024d88c7f
gd89-04-16d2t06.flac:71bc68d1db6eaee9356ffef84bab6301
gd89-04-16d2t07.flac:373d9198bff0e0ef04c775e7c13581a7
gd89-04-16d2t08.flac:0f8f5c341aed0d21c709e105ef763cdb
gd89-04-16d2t09.flac:e1f99807315289c07978a09933c765e5




More information about the bittorrent mailing list