[bittorrent] Phish - 3/30/93 - Eugene, OR - (FOB) Neumann km140 - new source to circulation

Automated Mailer noreply-bt.e at etree.org
Sun Jul 15 16:10:54 MDT 2007


Band:           Phish
Torrent Name:   Phish - 3/30/93 - Eugene, OR - (FOB) Neumann km140 - new source to circulation
Uploaded by:    jasonsobel
DB Link:        http://db.etree.org/shn/86298
Details:        http://bt.etree.org/details.php?id=508231

Contact the seeder at http://db.etree.org/jasonsobel

If the link to this show does not work, it was probably removed for
being non-trade-friendly.

Description / text file:
-------------------------
Phish
March 30, 1993
Hilton Ballroom
Eugene, OR

source:
(FOB) Neumann km140 > Sonosax SX-M2 > Sony D-10 II pro (@ 48 kHz)

transfer:
Tascam DA-20MKII > Tascam HD-P2 > CF card > usb 2.0 > pc > WaveLab 5.01b (de-emphasis, resample to 44.1 kHz, fades, patch) > CD Wave v1.95.1 > FLAC v1.1.4 (Level 8)

FLAC tags added with metaflac v1.1.4

recorded by Jim Cowan
transferred by Jason Sobel (jasonsobel at gmail.com)
seeded July 6, 2007

notes:
The original DAT recording was made with pre-emphasis.
The Waves Q10 Paragraphic EQ v5.0 plug-in was used to de-emphasize the recording.
The original 48 kHz .wav files from the DAT transfer have been archived, and are available upon request.
Big thanks to Dave Flaschner for letting me borrow his DATs!

Disc 1 - [70:36]
Set I
01 - [02:36] - Buried Alive >
02 - [02:36] - Poor Heart >
03 - [02:31] - All Things Reconsidered
04 - [04:40] - Golgi Apparatus
05 - [07:27] - My Friend My Friend >
06 - [04:24] - Llama
07 - [09:31] - Esther
08 - [14:25] - Stash
09 - [04:50] - Glide >
10 - [12:34] - The Divided Sky
11 - [05:01] - Cavern

Disc 2 - [70:32]
Set II
01 - [06:37] - Loving Cup >
02 - [05:58] - Rift >
03 - [14:16] - Tweezer >
04 - [08:00] - Lifeboy
05 - [02:37] - Big Ball Jam
06 - [06:02] - Weigh
07 - [08:41] - Mike's Song >
08 - [02:58] - I Am Hydrogen >
09 - [08:56] - Weekapaug Groove ->
10 - [03:04] - Psycho Killer ->
11 - [03:21] - Weekapaug Groove

Disc 2 - [22:10]
Set II continued
01 - [01:46] - The Horse >
02 - [04:58] - Silent in the Morning
03 - [01:09] - HYHU >
04 - [03:36] - If I Only Had a Brain >
05 - [00:39] - HYHU
06 - [02:53] - Tweezer Reprise
07 - [02:06] - encore break
08 - [02:48] - My Sweet One
09 - [02:16] - Amazing Grace

show notes:
Mike dedicated Mike's Song to himself.
The band subsequently included several references to it being "his song."

tech notes:
minor drop-out in "Buried Alive" from [00:45.9] to [00:46.4]
this drop-out was patched with the following source:
Nakamichi 300's > D5 (analog) preamp > D3 > CDR > EAC > SHN
Taped by Mikey Perrott
http://db.etree.org/shn/515

----------------------------------------------------------------------------------------

SHNtool output:

    length     expanded size   cdr  WAVE problems filename
     2:36.30       27589004    ---   --   ---xx   ph1993-03-30d1t01.flac
     2:36.35       27600764    ---   --   ---xx   ph1993-03-30d1t02.flac
     2:31.03       26643500    ---   --   ---xx   ph1993-03-30d1t03.flac
     4:40.12       49420268    ---   --   ---xx   ph1993-03-30d1t04.flac
     7:27.17       78890828    ---   --   ---xx   ph1993-03-30d1t05.flac
     4:24.12       46597868    ---   --   ---xx   ph1993-03-30d1t06.flac
     9:30.71      100715036    ---   --   ---xx   ph1993-03-30d1t07.flac
    14:25.08      152604860    ---   --   ---xx   ph1993-03-30d1t08.flac
     4:49.59       51118412    ---   --   ---xx   ph1993-03-30d1t09.flac
    12:33.41      132925676    ---   --   ---xx   ph1993-03-30d1t10.flac
     5:01.12       53124668    ---   --   ---xx   ph1993-03-30d1t11.flac
     6:37.19       70075532    ---   --   ---xx   ph1993-03-30d2t01.flac
     5:57.51       63094796    ---   --   ---xx   ph1993-03-30d2t02.flac
    14:16.20      151045484    ---   --   ---xx   ph1993-03-30d2t03.flac
     8:00.13       84702620    ---   --   ---xx   ph1993-03-30d2t04.flac
     2:36.74       27692492    ---   --   ---xx   ph1993-03-30d2t05.flac
     6:02.19       63901532    ---   --   ---xx   ph1993-03-30d2t06.flac
     8:41.33       91982060    ---   --   ---xx   ph1993-03-30d2t07.flac
     2:57.43       31323980    ---   --   ---xx   ph1993-03-30d2t08.flac
     8:56.34       94630412    ---   --   ---xx   ph1993-03-30d2t09.flac
     3:04.34       32537612    ---   --   ---xx   ph1993-03-30d2t10.flac
     3:21.03       35463500    ---   --   ---xx   ph1993-03-30d2t11.flac
     1:46.10       18721964    ---   --   ---xx   ph1993-03-30d3t01.flac
     4:57.38       52480220    ---   --   ---xx   ph1993-03-30d3t02.flac
     1:09.12       12199868    ---   --   ---xx   ph1993-03-30d3t03.flac
     3:35.46       38034236    ---   --   ---xx   ph1993-03-30d3t04.flac
     0:39.05        6891404    ---   --   ---xx   ph1993-03-30d3t05.flac
     2:53.19       30561932    ---   --   ---xx   ph1993-03-30d3t06.flac
     2:06.00       22226444    ---   --   ---xx   ph1993-03-30d3t07.flac
     2:48.02       29639948    ---   --   ---xx   ph1993-03-30d3t08.flac
     2:15.50       23931644    ---   --   ---xx   ph1993-03-30d3t09.flac
   163:18.00     1728368564 B                     (totals for 31 files, 0.5652 overall compression ratio)

--------------------------------------------------------------------------------------------------------
FLAC Fingerprint:
ph1993-03-30d1t01.flac:06f2e7556e213058a8c5a2d5564d07f1
ph1993-03-30d1t02.flac:aa9544acdd3b8ef0ebc0d159f021eea5
ph1993-03-30d1t03.flac:d6b085d19fc56a1fcec25bff8a9a5e9b
ph1993-03-30d1t04.flac:30f81cc69d56deee33b50925d1f29a61
ph1993-03-30d1t05.flac:6a4fc027cc737d2ae1c875756be935d4
ph1993-03-30d1t06.flac:e6ee6221b3460fc85a9b774ff9da335b
ph1993-03-30d1t07.flac:f1e95acc2cce64376b61c0352a478595
ph1993-03-30d1t08.flac:88f8d1cf9c08913e679ee0698f61087f
ph1993-03-30d1t09.flac:22689a19353fd4e6b7f9a0c02eb90455
ph1993-03-30d1t10.flac:97aa25348226730a954e3b96a1ce3577
ph1993-03-30d1t11.flac:bbf529209408a7a546ec0e20ff1098cc
ph1993-03-30d2t01.flac:73d37aa7fc58ccdb878b1e28408c6d23
ph1993-03-30d2t02.flac:e5141695ef948425b5eded141b1fb803
ph1993-03-30d2t03.flac:748d91c8f34c57b09b83cf387e472d18
ph1993-03-30d2t04.flac:d6203bcb3f395bcf0af850623f83b8f2
ph1993-03-30d2t05.flac:e26d1d236c24134c4f6df3e1602454d4
ph1993-03-30d2t06.flac:177c81239b70e8289c7c47d364df5014
ph1993-03-30d2t07.flac:76be5a4693fce333e28268c3790bf52f
ph1993-03-30d2t08.flac:6993c9be410ac9948f894b9d1bb590a2
ph1993-03-30d2t09.flac:11452951e29e37d9c34b3d1d1c4c9f8f
ph1993-03-30d2t10.flac:d68c40b3f6b62d3bf7590814ea840e42
ph1993-03-30d2t11.flac:9b804ca4888d885d5b7469aa30f3a62d
ph1993-03-30d3t01.flac:bf1abd673bc065d6b29ff1054e22ffaf
ph1993-03-30d3t02.flac:a945ff651e544b227242659e36a887d4
ph1993-03-30d3t03.flac:7ee5d5f79bd71342a8797476bfd5d5da
ph1993-03-30d3t04.flac:208e474b67ddcd576789cd13ee643966
ph1993-03-30d3t05.flac:970932ecc3b3b2fcc81e457064aa91be
ph1993-03-30d3t06.flac:408bf00675818f0cc4cc2af3b1c98202
ph1993-03-30d3t07.flac:40cda5903eb06b871ad5e29a14d3c79c
ph1993-03-30d3t08.flac:0aead0fc2b5d7fd3e885f39b396f7ba9
ph1993-03-30d3t09.flac:748e4aba9ef946245691f0cf1f7e7b43
--------------------------------------------------------------------------------------------------------
wav md5:
179649b55881c09ea63e5435f5e2d06f *ph1993-03-30d1t01.wav
6f6ce829f7319bff20379ea666525f6a *ph1993-03-30d1t02.wav
b75bb8cccf50a431f9aa56c4c2f7087b *ph1993-03-30d1t03.wav
238052e96c9f721c0b49c99554011eba *ph1993-03-30d1t04.wav
5fcf0fddcba1339d4ffc64e7bca78d2e *ph1993-03-30d1t05.wav
0384438df05eb8c4bdb1a98960b0137e *ph1993-03-30d1t06.wav
8728f69384a234233b696ee98d177f5d *ph1993-03-30d1t07.wav
d8cbba25621247fba2339a7312a9f2b8 *ph1993-03-30d1t08.wav
f692143981e392bcb9603ac2a9b3f5b4 *ph1993-03-30d1t09.wav
3e58d5b5d40ab678bafe00258d353236 *ph1993-03-30d1t10.wav
3659f9140b5c531c3595e5581dd97f4e *ph1993-03-30d1t11.wav
02acfcdcbac96509193766518acee8c8 *ph1993-03-30d2t01.wav
251704611ad57f6211150ab8ffb8bfd1 *ph1993-03-30d2t02.wav
2b1eee2513549fb0aa603d77544e8935 *ph1993-03-30d2t03.wav
4d2bace27fd8380a244267a425212d45 *ph1993-03-30d2t04.wav
07e226ebbd4d2171509495fa3609f9c5 *ph1993-03-30d2t05.wav
95a4b5e606aef1dc187068d295859d14 *ph1993-03-30d2t06.wav
63136077440db2536af138aca4a57e6e *ph1993-03-30d2t07.wav
4147076debbf4bbdd26b489fe6370e1f *ph1993-03-30d2t08.wav
bae043c24c347b74b232e9b2c3f4d924 *ph1993-03-30d2t09.wav
9a9c289af220ad43f9df153f19aaab76 *ph1993-03-30d2t10.wav
c2a99a59c7007c21880b6ceeafa16f78 *ph1993-03-30d2t11.wav
d7d343a219b9291e9dbe6ff9a7f2016b *ph1993-03-30d3t01.wav
dbe4cb6825dd1749d90e596aca7fa31e *ph1993-03-30d3t02.wav
4b03e0caaf5a6157dea005534c77cdea *ph1993-03-30d3t03.wav
1c145931a04dad773daa99b5e9f36e3a *ph1993-03-30d3t04.wav
901cf461d21bccd17e3b8b07275b3519 *ph1993-03-30d3t05.wav
5704e64aa691f0368b5b85f0c3aa2598 *ph1993-03-30d3t06.wav
eb5ca6fa8d6df6be823b8458acc5e792 *ph1993-03-30d3t07.wav
bc6d201122d2f3da5e5514ec1e43ee40 *ph1993-03-30d3t08.wav
5a8d781c72a8a23c726e817a2c5b961e *ph1993-03-30d3t09.wav
--------------------------------------------------------------------------------------------------------



More information about the bittorrent mailing list