[bittorrent] Telefon Tel Aviv @ RE:Generation 7/7/2007 (akg481)

Automated Mailer noreply-bt.e at etree.org
Sun Jul 15 09:01:46 MDT 2007


Band:           Other
Torrent Name:   Telefon Tel Aviv @ RE:Generation 7/7/2007 (akg481)
Uploaded by:    tedgerto
DB Link:        
Details:        http://bt.etree.org/details.php?id=508215

Contact the seeder at http://db.etree.org/tedgerto

If the link to this show does not work, it was probably removed for
being non-trade-friendly.

Description / text file:
-------------------------
Telefon Tel Aviv
July 7th, 2007
RE:Generation
Deerfields, NC

Source: AKG 481 > UA-5 (Oade Mod 2) > Tascam TCD-D8 (16bit/44.1k)
Location: 10' stand, dfc, DIN
Transfer: R500 > M-Audio Audiophile > Wavelab > SHNtool > FLAC (lvl 6)
Taped by Chris Grider, transferred by Todd (titotito at gmail)

Disc 1/Set 1:
01 - 
02 - 
03 - 
04 - 
05 - 
06 - 
07 - 

Setlist help, please email me.
Please support Live Music, and buy the CDs.

http://www.telefontelaviv.com/greaterThan.html

FLAC Fingerprint:

tta2007-07-07d1t01.flac:39cf66fc50ba49548b064074318fda9e
tta2007-07-07d1t02.flac:1c8500d3fbf511c35988a2a1a5e214f8
tta2007-07-07d1t03.flac:8a582b60f5846984a8190e252867d0c7
tta2007-07-07d1t04.flac:3bfa84890549358e8205dba655aeb1b0
tta2007-07-07d1t05.flac:f7a2971388df84c4cea64932c6dae1c4
tta2007-07-07d1t06.flac:e2bedc8c82021e87d5ce38e496fc1cc2
tta2007-07-07d1t07.flac:73997aec18b91f1db013334933e7c531

SHNtool Output:

    length     expanded size   cdr  WAVE problems filename
     0:47.55        8420204    ---   --   ---xx   tta2007-07-07d1t01.flac
     6:59.40       74005724    ---   --   ---xx   tta2007-07-07d1t02.flac
     7:55.07       83806508    ---   --   ---xx   tta2007-07-07d1t03.flac
    21:33.61      228228716    ---   --   ---xx   tta2007-07-07d1t04.flac
     4:30.47       47738588    ---   --   ---xx   tta2007-07-07d1t05.flac
     8:04.14       85410572    ---   --   ---xx   tta2007-07-07d1t06.flac
     7:10.52       75974348    ---   --   ---xx   tta2007-07-07d1t07.flac
    57:01.51      603584660 B (totals for 7 files, 0.4689 overall compression ratio)



More information about the bittorrent mailing list