[bittorrent] Dubconscious @ RE:Generation 7/7/2007 (akg481)

Automated Mailer noreply-bt.e at etree.org
Sat Jul 14 21:33:30 MDT 2007


Band:           Other
Torrent Name:   Dubconscious @ RE:Generation 7/7/2007 (akg481)
Uploaded by:    tedgerto
DB Link:        
Details:        http://bt.etree.org/details.php?id=508208

Contact the seeder at http://db.etree.org/tedgerto

If the link to this show does not work, it was probably removed for
being non-trade-friendly.

Description / text file:
-------------------------
Dubconscious
July 7th, 2007
RE:Generation
Deerfields, NC

Source: AKG 481 > UA-5 (Oade Mod 2) > Tascam TCD-D8 (16bit/44.1k)
Location: 10' stand, dfc, DIN
Transfer: R500 > M-Audio Audiophile > Wavelab > SHNtool > FLAC (lvl 6)
Taped by Chris Grider, transferred by Todd (titotito at gmail)

Disc 1/Set 1:
01 - Wise Man Say
02 - Future Eyes
03 - Stereotype
04 - Constantly Inspired
05 - The Man
06 - Much Respect
07 - Bringers of the Vibration
08 - Temptation 
09 - Ring the Alarm
10 - Old Jamaica
11 - Instrumental (???)

Disc 2/Set 1:
01 - Rearrange
02 - Instrumental (???)
03 - (???)
04 - Instrumental (???)
05 - Jerusalem
06 - Instrumental (???)
07 - What We Say

Setlist corrections/additions, please email me.
Please support Live Music, and buy the CDs.

http://www.dubconscious.com/

FLAC Fingerprint:

dubconscious2007-07-07d1t01.flac:787974f5cb5c989ecd9102ce16160515
dubconscious2007-07-07d1t02.flac:62e9c051aacfc649ba46f3bae788f0fa
dubconscious2007-07-07d1t03.flac:73430e57787be3d78e9d10317412c886
dubconscious2007-07-07d1t04.flac:3e47330442accbaeed783910d7b0d1a8
dubconscious2007-07-07d1t05.flac:54bc18f9717daa01a06770cfd13f3311
dubconscious2007-07-07d1t06.flac:a7a882e044c78c20b644e4ead48266a1
dubconscious2007-07-07d1t07.flac:d315d1abe2e8ebee50da001255b6734d
dubconscious2007-07-07d1t08.flac:260e761b64eb9ac65bd7bf7a4b818179
dubconscious2007-07-07d1t09.flac:1c821b73f6210e98714902e35aad576d
dubconscious2007-07-07d1t10.flac:1ce9f88a49b409ecb85431a2af5acd66
dubconscious2007-07-07d1t11.flac:02340a00fc8236f50092e67eda03bf50
dubconscious2007-07-07d2t01.flac:574fbaf417a5e87a8aa0bf1bb07a70bb
dubconscious2007-07-07d2t02.flac:924017cc103cc5cf834fb3003bedb8b3
dubconscious2007-07-07d2t03.flac:9ce997708a57494ea1ddbba2817051a0
dubconscious2007-07-07d2t04.flac:54fbc40fd74d0911be6107ead4a97a62
dubconscious2007-07-07d2t05.flac:d8050d070fd0ecd44f4369baab7e6ac2
dubconscious2007-07-07d2t06.flac:43037fcdddd6a2543471576f0ebc9428
dubconscious2007-07-07d2t07.flac:b839a8faa138df05d428e24ebad8f3cc

SHNtool Output:

    length     expanded size   cdr  WAVE problems filename
     2:59.61       31719116    ---   --   ---xx   dubconscious2007-07-07d1t01.flac
     9:42.69      102827132    ---   --   ---xx   dubconscious2007-07-07d1t02.flac
     6:45.47       71552588    ---   --   ---xx   dubconscious2007-07-07d1t03.flac
     5:17.19       55963532    ---   --   ---xx   dubconscious2007-07-07d1t04.flac
     8:04.35       85459964    ---   --   ---xx   dubconscious2007-07-07d1t05.flac
     5:32.33       58642460    ---   --   ---xx   dubconscious2007-07-07d1t06.flac
     8:39.19       91596332    ---   --   ---xx   dubconscious2007-07-07d1t07.flac
     5:05.47       53912588    ---   --   ---xx   dubconscious2007-07-07d1t08.flac
     9:21.35       99042764    ---   --   ---xx   dubconscious2007-07-07d1t09.flac
     5:04.00       53625644    ---   --   ---xx   dubconscious2007-07-07d1t10.flac
     4:22.26       46277996    ---   --   ---xx   dubconscious2007-07-07d1t11.flac
     3:56.45       41736284    ---   --   ---xx   dubconscious2007-07-07d2t01.flac
     5:22.35       56883164    ---   --   ---xx   dubconscious2007-07-07d2t02.flac
     5:14.65       55542524    ---   --   ---xx   dubconscious2007-07-07d2t03.flac
     3:05.60       32775164    ---   --   ---xx   dubconscious2007-07-07d2t04.flac
     6:57.51       73678796    ---   --   ---xx   dubconscious2007-07-07d2t05.flac
    13:51.63      146736620    ---   --   ---xx   dubconscious2007-07-07d2t06.flac
     6:45.02       71446748    ---   --   ---xx   dubconscious2007-07-07d2t07.flac
   116:09.37     1229419416 B (totals for 18 files, 0.5240 overall compression ratio)




More information about the bittorrent mailing list