[bittorrent] Sacred Science @ RE:Generation 7/7/2007 (akg481)

Automated Mailer noreply-bt.e at etree.org
Sat Jul 14 13:55:28 MDT 2007


Band:           Other
Torrent Name:   Sacred Science @ RE:Generation 7/7/2007 (akg481)
Uploaded by:    tedgerto
DB Link:        
Details:        http://bt.etree.org/details.php?id=508199

Contact the seeder at http://db.etree.org/tedgerto

If the link to this show does not work, it was probably removed for
being non-trade-friendly.

Description / text file:
-------------------------
Sacred Science
July 7th, 2007
RE:Generation
Deerfield, NC

Source: AKG 481 > UA-5 > Tascam TCD-D8 (16bit/44.1k)
Location: Left Corner of SBD, DIN
Transfer: R500 > M-Audio Audiophile > Wavelab > SHNtool > FLAC (lvl 6)
Taped by Chris Grider, transferred by Todd (titotito at gmail)

Set 1/Disc 1:
Track 1-8 (Unknown Names)

Scotty Hedron and DJ Saxton, thanks again!

FLAC Fingerprint:

sacredscience2007-07-07d1t01.flac:cda4b75a785d363dd69f2460a0283f50
sacredscience2007-07-07d1t02.flac:f03d0dcb4d6c1b93574f0c7bb8b006ff
sacredscience2007-07-07d1t03.flac:9ffb4ddcb7d19d8883560c751ea0d665
sacredscience2007-07-07d1t04.flac:c516c3fd5c82d7ac1fc1555badf6bc98
sacredscience2007-07-07d1t05.flac:cde8ea8c15c593b6a51716c9c89a102a
sacredscience2007-07-07d1t06.flac:0d6f48cf1150b31a8bd0a02a1b2c144c
sacredscience2007-07-07d1t07.flac:29f45ca2a288b6baefa73aead81d5678
sacredscience2007-07-07d1t08.flac:8e155de663cefd8bcbad8eb2af5eb68f

SHNtool Output:

    length     expanded size   cdr  WAVE problems filename
     4:02.35       42771164    ---   --   ---xx   sacredscience2007-07-07d1t01.flac
     7:04.24       74850092    ---   --   ---xx   sacredscience2007-07-07d1t02.flac
    10:53.44      115292732    ---   --   ---xx   sacredscience2007-07-07d1t03.flac
     8:42.10       92104364    ---   --   ---xx   sacredscience2007-07-07d1t04.flac
     9:07.36       96575516    ---   --   ---xx   sacredscience2007-07-07d1t05.flac
    14:38.48      154992140    ---   --   ---xx   sacredscience2007-07-07d1t06.flac
     7:34.62       80231468    ---   --   ---xx   sacredscience2007-07-07d1t07.flac
     6:30.42       68894828    ---   --   ---xx   sacredscience2007-07-07d1t08.flac
    68:34.01      725712304 B   (totals for 8 files, 0.5447 overall compression ratio)




More information about the bittorrent mailing list