[bittorrent] Grateful Dead (-: *GD66-67* :-) Shrine Auditorium, Los Angeles, CA - 11/11/67 [SBD.1613]

Automated Mailer noreply-bt.e at etree.org
Sat Jul 14 12:23:27 MDT 2007


Band:           Grateful Dead
Torrent Name:   Grateful Dead (-: *GD66-67* :-) Shrine Auditorium, Los Angeles, CA - 11/11/67 [SBD.1613]
Uploaded by:    cletus_boy
DB Link:        http://db.etree.org/shn/1613
Details:        http://bt.etree.org/details.php?id=508195

Contact the seeder at http://db.etree.org/cletus_boy

If the link to this show does not work, it was probably removed for
being non-trade-friendly.

Description / text file:
-------------------------
(-: *GD66-67* :-)

11.11.67 -- Shrine Auditorium, Los Angeles, CA

MSR>R>R>DAT>CDR
(note source updated with extra reel gen, based on info from Rob Bertrando)

* *NOTE: This is the original, SHN source. Accept no substitutes  :-) **

1. Lovelight 11:43 
2. Death Don't 7:41 
3. Schoolgirl 12:11 
4. Cryptical > 1:24 
5. The Other One > 2:34 
6. Cryptical 10:45 
7. New Potato Caboose 10:59 

Total time: 57:31 

EAC by Chalupa.

SHNTOOL OUTPUT:
    length     expanded size   cdr  WAVE problems filename
    11:53.15      125808524    ---   --   ---xx   gd67-11-11d1t01.shn
     7:42.05       81508604    ---   --   ---xx   gd67-11-11d1t02.shn
    12:11.70      129113084    ---   --   ---xx   gd67-11-11d1t03.shn
     1:24.45       14923484    ---   --   ---xx   gd67-11-11d1t04.shn
     2:34.40       27259724    ---   --   ---xx   gd67-11-11d1t05.shn
    10:45.10      113801564    ---   --   ---xx   gd67-11-11d1t06.shn
    11:02.52      116899148    ---   --   ---xx   gd67-11-11d1t07.shn
    57:34.12      609314132 B                     (totals for 7 files, 0.6104 overall compression ratio)

MD5:
c80472e8bf63b94863dc0417ff1107a9 *gd67-11-11d1t04.shn
aaafd119c85614309959f87c21b42ae7 *gd67-11-11d1t02.shn
8b0b5e04b8076bcea361d023580d24d1 *gd67-11-11d1t03.shn
3f3318832fd19a61da761c920bf2d9de *gd67-11-11d1t01.shn
6c128350dcfe1b26d284c40a3edd9269 *gd67-11-11d1t07.shn
42d2390783f7faa565587a2f9fc1369f *gd67-11-11d1t06.shn
6890ee56130694366a75eea95c881e7e *gd67-11-11d1t05.shn



More information about the bittorrent mailing list