[bittorrent] Lyrics Born @ RE:Generation 7/7/07 (mk4>m248>mme>hd-p2)

Automated Mailer noreply-bt.e at etree.org
Fri Jul 13 22:40:40 MDT 2007


Band:           Other
Torrent Name:   Lyrics Born @ RE:Generation 7/7/07 (mk4>m248>mme>hd-p2)
Uploaded by:    tedgerto
DB Link:        
Details:        http://bt.etree.org/details.php?id=508186

Contact the seeder at http://db.etree.org/tedgerto

If the link to this show does not work, it was probably removed for
being non-trade-friendly.

Description / text file:
-------------------------
Lyrics Born
July 7th, 2007
RE:Generation
Deerfields, NC

Source: mk4 > kc5 > cmc6 > mini-me > tascam hd-p2 (24/96)
Location: dfc, fob, ortf, 8' stand
Transfer: Transfer: CF > Wavelab (edits/fades/resampled/dithered-UV22HR) > FLAC (lvl 6)
Taped & transferred by Todd (titotito at gmail)

Set 1/Disc 1:
01 - Intro 
02 - Shake it Off (Bad Dreams Pt. II) 
03 - One Session 
04 - Hello 
05 - Pack It Up 
06 - Hott Bizness 
07 - Stop Complaining 
08 - Love Me So Bad 
09 - Callin' Out 
10 - I'm Just Raw 
11 - Bad Dreams 
12 - Release Pt. 1, 2 and 3

Setlist corrections, please email me.
Note: Missing a song between 9 & 10, due to battery-switch!!

Please support Live Music and get the new CD: "Everywhere at Once"
http://lyricsborn.com/ 

FLAC Fingerprint:

lyricsborn2007-07-07d1t01.flac:ac51ab9a1c4d344d11e46e34e42b5878
lyricsborn2007-07-07d1t02.flac:6884fcd84cb591263895c5711255da0c
lyricsborn2007-07-07d1t03.flac:3b0e0865b1f9609f8f6f9b4b7bbb2d39
lyricsborn2007-07-07d1t04.flac:e8efde28136e22c12107a8160cd4635c
lyricsborn2007-07-07d1t05.flac:b100f6e016cf675c40aec65fa26c1025
lyricsborn2007-07-07d1t06.flac:21ae393f0841098c3396aac9cc991037
lyricsborn2007-07-07d1t07.flac:fce226cd496f3661abe3574e6a7a1eb9
lyricsborn2007-07-07d1t08.flac:20c18a74307347abfe4b201b0ca4cf74
lyricsborn2007-07-07d1t09.flac:7e658b97712d61cf25a70e3ba2907a52
lyricsborn2007-07-07d1t10.flac:9f9f094b9ee61c9f22956fc3244338da
lyricsborn2007-07-07d1t11.flac:38dfdf32fc5af49b48aea7b0d83d2b72
lyricsborn2007-07-07d1t12.flac:ac820a6616d2159a4697e64d28405e02

SHNtool Output:

    length     expanded size   cdr  WAVE problems filename
     0:25.70        4574684    ---   --   ---xx   lyricsborn2007-07-07d1t01.flac
     5:07.34       54234812    ---   --   ---xx   lyricsborn2007-07-07d1t02.flac
     3:23.38       35898620    ---   --   ---xx   lyricsborn2007-07-07d1t03.flac
     3:41.36       39069116    ---   --   ---xx   lyricsborn2007-07-07d1t04.flac
     2:33.00       26989244    ---   --   ---xx   lyricsborn2007-07-07d1t05.flac
     9:38.53      102083900    ---   --   ---xx   lyricsborn2007-07-07d1t06.flac
     2:53.17       30557228    ---   --   ---xx   lyricsborn2007-07-07d1t07.flac
     9:36.52      101728748    ---   --   ---xx   lyricsborn2007-07-07d1t08.flac
     6:19.40       66949724    ---   --   ---xx   lyricsborn2007-07-07d1t09.flac
     2:55.20       30917084    ---   --   ---xx   lyricsborn2007-07-07d1t10.flac
     4:45.20       50321084    ---   --   ---xx   lyricsborn2007-07-07d1t11.flac
     5:22.42       56899628    ---   --   ---xx   lyricsborn2007-07-07d1t12.flac
    56:42.47      600223872 B  (totals for 12 files, 0.5415 overall compression ratio)



More information about the bittorrent mailing list