[bittorrent] Nichols, Isbell, Tompkins & Bice - 2007-02-09 - Bluebird Cafe - Nashville, TN.

Automated Mailer noreply-bt.e at etree.org
Thu Jul 12 11:23:05 MDT 2007


Band:           Other
Torrent Name:   Nichols, Isbell, Tompkins & Bice - 2007-02-09 - Bluebird Cafe - Nashville, TN.
Uploaded by:    mmedley
DB Link:        
Details:        http://bt.etree.org/details.php?id=508146

Contact the seeder at http://db.etree.org/mmedley

If the link to this show does not work, it was probably removed for
being non-trade-friendly.

Description / text file:
-------------------------
Nichols, Isbell, Tompkins & Bice
2007-02-09
Bluebird Cafe
Nashville, TN.


***16bit Source***


Source: SBD > Sound Devices 722 @ 24bit/96kHz
Transfer: 722 > HDD > Wavelab 5.01a (Fades/Re-Sample/UV22HR Dither) > CDWave > FLAC (8)
Taped, Transferred & Seeded by Martin Medley.


Disc 1:

01. Intro
02. I Hope Heaven Is Alot Like My Hometown
03. Something With Some Attitude
04. She's An Angel (?)
05. American Blood
06. Bama Breeze
07. Somewhere Between Wrong And Right
08. Street Lights
09. I Ain't Gonna Die
10. Old Man Rigley *
11. Live Like You Were Dying *


Disc 2:

12. If We Could Make Love For A Living
13. Goddam Lonely Love
14. 
15. Before He Cheats
16. Unbroken Ground
17. Dress Blues
18. Mr. East
19. Bulletproof **

Finale:

20. Whipping Post


*  with Craig Wiseman on acoustic guitar and vocals
** with Betsy Ulmer on vocals


Gary Nichols - Acoustic Guitar
Jason Isbell - Acoustic Guitar
Bo Bice - Acoustic Guitar
Chris Tompkins - Keyboards


shntool info:

    length     expanded size   cdr  WAVE problems filename
     4:21.69       46202732    ---   --   ---xx   nitb2007-02-09t01.flac
     4:18.60       45652364    ---   --   ---xx   nitb2007-02-09t02.flac
     3:10.40       33610124    ---   --   ---xx   nitb2007-02-09t03.flac
     4:42.67       49902428    ---   --   ---xx   nitb2007-02-09t04.flac
     5:09.20       54554684    ---   --   ---xx   nitb2007-02-09t05.flac
     5:28.63       58007420    ---   --   ---xx   nitb2007-02-09t06.flac
     3:50.00       40572044    ---   --   ---xx   nitb2007-02-09t07.flac
     8:00.41       84768476    ---   --   ---xx   nitb2007-02-09t08.flac
     5:36.19       59315132    ---   --   ---xx   nitb2007-02-09t09.flac
     5:34.27       58981148    ---   --   ---xx   nitb2007-02-09t10.flac
     8:19.25       88082444    ---   --   ---xx   nitb2007-02-09t11.flac
     4:51.20       51379484    ---   --   ---xx   nitb2007-02-09t12.flac
     9:53.31      104678156    ---   --   ---xx   nitb2007-02-09t13.flac
     5:57.60       63115964    ---   --   ---xx   nitb2007-02-09t14.flac
     6:41.07       70752908    ---   --   ---xx   nitb2007-02-09t15.flac
     3:57.66       41962076    ---   --   ---xx   nitb2007-02-09t16.flac
     9:19.65       98760524    ---   --   ---xx   nitb2007-02-09t17.flac
     7:57.01       84145196    ---   --   ---xx   nitb2007-02-09t18.flac
     6:16.61       66469916    ---   --   ---xx   nitb2007-02-09t19.flac
     9:09.44       96947132    ---   --   ---xx   nitb2007-02-09t20.flac
   122:37.36     1297860352 B                     (totals for 20 files, 0.3612 overall compression ratio)


FLAC Fingerprint:

nitb2007-02-09t01.flac:095083c9c0c0b60df1d60d7bd9eaccb9
nitb2007-02-09t02.flac:878b2cbd451dee1eb627ecd4b3cd9965
nitb2007-02-09t03.flac:24bdf2a7c3a7ef99a917ba33e1cf4dc4
nitb2007-02-09t04.flac:0f9916a1083b7cc47dfae04135d6a691
nitb2007-02-09t05.flac:9b7af36d93a7f348ac5e45aaaf77ea46
nitb2007-02-09t06.flac:3012991b6d24ec21afa07d8c5ce1777b
nitb2007-02-09t07.flac:3cceab782e518dcd73e71ecd11d0fc47
nitb2007-02-09t08.flac:d789105377fb213abce22268024e1be1
nitb2007-02-09t09.flac:027d2c9e0163ad148a984ac96761e74a
nitb2007-02-09t10.flac:489fd4e099dc495f9d79c4a827c06097
nitb2007-02-09t11.flac:23fa63375b31a04632c6ac9a58d16b70
nitb2007-02-09t12.flac:126f45e396f2451bbfa72fab2973f5e4
nitb2007-02-09t13.flac:2d418a2bf8fe77c259285b473917dfe0
nitb2007-02-09t14.flac:8eb741f6aff258a8964b6f1d91aeb0cd
nitb2007-02-09t15.flac:70ed9378a7f4c8a456a710fd7e8b8230
nitb2007-02-09t16.flac:1a09dcd53cd6f3feb3dbaf2c345428b7
nitb2007-02-09t17.flac:cbbe285f7dfefdaebad20441b1b01d31
nitb2007-02-09t18.flac:b7875b12c3e729c3c8a2c58ce5dd1219
nitb2007-02-09t19.flac:fee559e9d1af9be740c0e1e38356ed9e
nitb2007-02-09t20.flac:25fe572f03151221394ccbccfe649536




More information about the bittorrent mailing list