[bittorrent] Jason Isbell 5/12/05 Asheville Pizza & Brewing Co, Asheville, NC akg 483's

Automated Mailer noreply-bt.e at etree.org
Thu Jul 12 09:12:17 MDT 2007


Band:           Drive-By Truckers
Torrent Name:   Jason Isbell 5/12/05 Asheville Pizza & Brewing Co, Asheville,NC akg 483's
Uploaded by:    datdork
DB Link:        http://db.etree.org/lookup_show.php?shows_key=267950
Details:        http://bt.etree.org/details.php?id=508144

Contact the seeder at http://db.etree.org/datdork

If the link to this show does not work, it was probably removed for
being non-trade-friendly.

Description / text file:
-------------------------
the album is out and it's official! we can now share the solo shows!


please support jason and buy the disc!!


Jason Isbell
5-12-05
Asheville Pizza and Brewing Company
Asheville,NC

source:    AKG 480/ck63 (xy) > Lunatec V3 > Nomad Jukebox 3 @ 44.1
location:  at booth 4th row dfc
transfer:  JB3 > firewire > nomad explorer > soundforge 6.0 > cd wave > flac level 6

taped and transferred by gordon wilson

set one/disc one:

1. My Running Mate
2. Never Gonna Change
3. Razor Town
4. Danko / Manuel
5. Shotgun Wedding
6. Crystal Clear
7. Whisper
8. ? (centromatic song)

set two/disc two:

1. Decoration Day
2. Goddamn Lonely Love
3. Groan
4. Thank God For The TVA
5. The Day John Henry Died
6. Hurricanes and Handgrenades (I Got a Cigarette)
7. Magician
8. Even The Losers
9. Try
10. Outfit

notes:
- Jason's vocals brickwall once or twice.  it was from the PA, not my rig.  don't let this scare you it's once or twice and pretty minor.
- fades added at the beginning and end of sets with soundforge 6.0
- during set two there were a few spots were the loud jackass in the left channel had to be edited.
- soundforge 6.0 was used to copy the right channel in the spots.  trust me it was needed and is much better.
- sector boundary's confirmed with shntool v2.0.3

shntool:
    length     expanded size   cdr  WAVE problems filename
     6:36.44       69957932    ---   --   ---xx   jisbell2005-05-12d1t01.flac
     6:32.26       69209996    ---   --   ---xx   jisbell2005-05-12d1t02.flac
     4:25.04       46755452    ---   --   ---xx   jisbell2005-05-12d1t03.flac
     6:20.01       67034396    ---   --   ---xx   jisbell2005-05-12d1t04.flac
     4:29.05       47463404    ---   --   ---xx   jisbell2005-05-12d1t05.flac
     7:48.57       82689308    ---   --   ---xx   jisbell2005-05-12d1t06.flac
     6:00.39       63595772    ---   --   ---xx   jisbell2005-05-12d1t07.flac
     4:53.48       51798140    ---   --   ---xx   jisbell2005-05-12d1t08.flac
     8:01.24       84904892    ---   --   ---xx   jisbell2005-05-12d2t01.flac
     5:03.37       53536268    ---   --   ---xx   jisbell2005-05-12d2t02.flac
     3:33.49       37688492    ---   --   ---xx   jisbell2005-05-12d2t03.flac
     5:07.13       54185420    ---   --   ---xx   jisbell2005-05-12d2t04.flac
     4:20.55       45993404    ---   --   ---xx   jisbell2005-05-12d2t05.flac
     5:21.55       56753804    ---   --   ---xx   jisbell2005-05-12d2t06.flac
     4:28.06       47289356    ---   --   ---xx   jisbell2005-05-12d2t07.flac
     3:16.09       34595612    ---   --   ---xx   jisbell2005-05-12d2t08.flac
     4:58.41       52663676    ---   --   ---xx   jisbell2005-05-12d2t09.flac
     5:07.12       54183068    ---   --   ---xx   jisbell2005-05-12d2t10.flac
    96:24.00         973.03 MB                    (totals for 18 files, 0.4519 overall compression ratio)


ffp:
jisbell2005-05-12d1t01.flac:9b1b183020f9d97c8e69588850182bed
jisbell2005-05-12d1t02.flac:ac79881fb332a783c15021406b42722f
jisbell2005-05-12d1t03.flac:9fee0c26d8704eaeebd6809c46939946
jisbell2005-05-12d1t04.flac:5a8603c8ac457dc5902cced91e9e0122
jisbell2005-05-12d1t05.flac:8f425bf7835f4b70217385c5478bbfd1
jisbell2005-05-12d1t06.flac:a694eabb8d38ce6666869a59fa02c076
jisbell2005-05-12d1t07.flac:880de566a5d6881e28e836777b9c7a8b
jisbell2005-05-12d1t08.flac:dc7172db8696e8643d61b97a30512477
jisbell2005-05-12d2t01.flac:5a4fcbad0f216e3c81aaa0db0a50f2b6
jisbell2005-05-12d2t02.flac:790cbcd37e9963c4bc7c269375276256
jisbell2005-05-12d2t03.flac:44a0422b589497150cfd872bdd34f18d
jisbell2005-05-12d2t04.flac:94861b23cba4bc13f4eda9412c5c67c8
jisbell2005-05-12d2t05.flac:0ffe3135751ebed49fa674c37a6aabb9
jisbell2005-05-12d2t06.flac:b1807709c8958e3f8304f4d644b3d101
jisbell2005-05-12d2t07.flac:802506b540d8f57211825505bccc274d
jisbell2005-05-12d2t08.flac:2ed210fc2625f466225c1494f854d571
jisbell2005-05-12d2t09.flac:6fa4bfad067292fb267abc6b862e435f
jisbell2005-05-12d2t10.flac:15416eb7ddbde00fff074670c4fc8bf9




More information about the bittorrent mailing list