[bittorrent] Jason Isbell Trio 2/4/05 The Watershed Black Mountain, NC akg 483's

Automated Mailer noreply-bt.e at etree.org
Thu Jul 12 00:35:16 MDT 2007


Band:           Drive-By Truckers
Torrent Name:   Jason Isbell Trio 2/4/05 The Watershed Black Mountain,NC akg 483's
Uploaded by:    datdork
DB Link:        http://db.etree.org/myshows_detail.php?showid=5521057
Details:        http://bt.etree.org/details.php?id=508140

Contact the seeder at http://db.etree.org/datdork

If the link to this show does not work, it was probably removed for
being non-trade-friendly.

Description / text file:
-------------------------
the album is out and it's official! we can now share the solo shows!


please support jason and buy the disc!!


Jason Isbell
2-4-05
The Watershed
Black Mountain, NC
 
source:   AKG 480/ck63 (DINa) > Lunatec V3 > Nomad Jukebox 3 @ 44.1
transfer: JB3 > usb > creative playcenter > wavelab 4.0 > cdwave > flac level 8

taped and transfered by gordon wilson

set one:

1. The Day John Henry Died
2. Never Gonna Change
3. Goddamn Lonely Love
4. Thank God For The TVA
5. Outfit
6. Decoration Day
7. Danko / Manuel

set two:
1. Brand New Kind Of Actress
2. The Assassin
3. Crystal Clear
4. Hurricanes and Handgrenades (I Got a Cigarette)
5. Cincinnati Jail *
6. Groan
7. Try
8. Chicago Promenade
9. Only Daddy That'll Walk The Line *
10. Magician
11. Whisper

encore:
12. Shotgun Wedding
13. Whipping Post*

Jason Isbell: guitar and vocals
Shonna Tucker: bass
Mike Dillon: drums and vocals

notes:
- set one was just Jason
- *Mike on vocals
- fades added at the beginning and end of sets with wavelab 4.0
- sector boundary's confirmed with shntool v2.0.3


shntool:
    length     expanded size   cdr  WAVE problems filename
     4:33.06       48171356    ---   --   ---xx   jisbell2005-02-04d1t01.flac
     5:17.10       55942364    ---   --   ---xx   jisbell2005-02-04d1t02.flac
     5:34.47       59028188    ---   --   ---xx   jisbell2005-02-04d1t03.flac
     5:42.58       60465260    ---   --   ---xx   jisbell2005-02-04d1t04.flac
     5:21.18       56666780    ---   --   ---xx   jisbell2005-02-04d1t05.flac
     6:01.36       63765116    ---   --   ---xx   jisbell2005-02-04d1t06.flac
     6:37.15       70066124    ---   --   ---xx   jisbell2005-02-04d1t07.flac
     5:41.00       60152444    ---   --   ---xx   jisbell2005-02-04d2t01.flac
     3:58.24       42039692    ---   --   ---xx   jisbell2005-02-04d2t02.flac
     5:52.65       62245724    ---   --   ---xx   jisbell2005-02-04d2t03.flac
     5:07.66       54310076    ---   --   ---xx   jisbell2005-02-04d2t04.flac
     6:53.03       72860300    ---   --   ---xx   jisbell2005-02-04d2t05.flac
     4:01.60       42653564    ---   --   ---xx   jisbell2005-02-04d2t06.flac
     5:44.09       60702812    ---   --   ---xx   jisbell2005-02-04d2t07.flac
     3:51.09       40769612    ---   --   ---xx   jisbell2005-02-04d2t08.flac
     3:52.39       41016572    ---   --   ---xx   jisbell2005-02-04d2t09.flac
     4:43.29       49989452    ---   --   ---xx   jisbell2005-02-04d2t10.flac
     6:24.66       67892876    ---   --   ---xx   jisbell2005-02-04d2t11.flac
     4:09.71       44090636    ---   --   ---xx   jisbell2005-02-04d2t12.flac
     7:11.10       76051964    ---   --   ---xx   jisbell2005-02-04d2t13.flac
   106:39.41        1076.58 MB                    (totals for 20 files, 0.5312 overall compression ratio)

ffp:
jisbell2005-02-04d1t01.flac:b11582155bcc805c21ad5f60725537cd
jisbell2005-02-04d1t02.flac:9b87d86bd4ab97c712c2564f49fd015a
jisbell2005-02-04d1t03.flac:f3a1d15da1d2367e8cee942d3e4ab245
jisbell2005-02-04d1t04.flac:1ce7345235dd00087f240f1d3585f3bc
jisbell2005-02-04d1t05.flac:272083ba93aeed2e4b2ba26fce4d3b12
jisbell2005-02-04d1t06.flac:bb0cc126cb008e44d2cc8eef50cb25da
jisbell2005-02-04d1t07.flac:ceaf06be8e32e60a203a32377ca1bc79
jisbell2005-02-04d2t01.flac:1c018d2080f3f98125e4dc2833df9bc6
jisbell2005-02-04d2t02.flac:5c886433fec1b6cff2ded74f494b17ef
jisbell2005-02-04d2t03.flac:dd5b469e6d26741e1b82af8d7f0464f9
jisbell2005-02-04d2t04.flac:2f7e9f3c19f0c5234039e47f4084a83b
jisbell2005-02-04d2t05.flac:b0c4458a46d4f9c51e1e23538374b3f0
jisbell2005-02-04d2t06.flac:b0617207135a4d1925073e89127fb8a6
jisbell2005-02-04d2t07.flac:6d8b6f83666e3fa787e452dcb103dc46
jisbell2005-02-04d2t08.flac:38715d159583bfaafd6da17fb7772008
jisbell2005-02-04d2t09.flac:0d5443608283a54b75f1c99affaa8571
jisbell2005-02-04d2t10.flac:d0b2416ad03edff0049bc52c8427f125
jisbell2005-02-04d2t11.flac:37d70d5b2a3e4ab56be593674dce8d30
jisbell2005-02-04d2t12.flac:09a50d47f299a8f086b716359346160a
jisbell2005-02-04d2t13.flac:038c7d22aaea71596f9926a4aaefbc03




More information about the bittorrent mailing list