[bittorrent] Sound Tribe Sector 9 @ RE:Generation 7/6/2007 (mk4)

Automated Mailer noreply-bt.e at etree.org
Wed Jul 11 18:52:46 MDT 2007


Band:           Sound Tribe Sector 9
Torrent Name:   Sound Tribe Sector 9 @ RE:Generation 7/6/2007 (mk4)
Uploaded by:    tedgerto
DB Link:        
Details:        http://bt.etree.org/details.php?id=508130

Contact the seeder at http://db.etree.org/tedgerto

If the link to this show does not work, it was probably removed for
being non-trade-friendly.

Description / text file:
-------------------------
Sound Tribe Sector 9
July 6th, 2007
RE:Generation 
Deerfields, NC

Source: mk4 > kc5 > cmc6 > m248 > mini-me > tascam hd-p2 (24/96)
Location: dfc, fob, ORTF, 8' stand
Transfer: CF > Wavelab (edits/fades/resampled/dithered-UV22HR) > FLAC (lvl 6)
Taped & transferred by Todd (titotito at gmail)

Set 1/Disc 1:
01 - 
02 - 
03 - 
04 - 
05 - 
06 - 
07 - 
08 - 

Set 2/Disc 2:
01 -  *
02 - 
03 - 
04 - 
05 - 

Set 2/Disc 3:
01 - 
02 - 
Encore:
03 - 
04 - 

Thanks to STS9 for a great weekend!

* 4min14sec spliced from sp4 > minime > microtrack (24/48) X/Y, same stand
Upsampled to 24/96, in Wavelab.  Thanks to Joe for the splice!

FLAC Fingerprint:

sts9-2007-07-06d1t01.flac:09e47d1ac806ccbbbfd6b6f1449ac5e5
sts9-2007-07-06d1t02.flac:f24b8b91d96c80e4686719ac04b5e3fa
sts9-2007-07-06d1t03.flac:70d52e02036953d2c704eb39d60ce924
sts9-2007-07-06d1t04.flac:f4a22fe57502656808a32deb4fd0ec93
sts9-2007-07-06d1t05.flac:7364ed5199d3f32355746de47e87959b
sts9-2007-07-06d1t06.flac:061cc7d83e2db8b5f807ae534397f233
sts9-2007-07-06d1t07.flac:15eb0e20fcd486baf0976608fdcba838
sts9-2007-07-06d1t08.flac:2a3a1bd4e91a7e7ec4df851c61ae236e
sts9-2007-07-06d2t01.flac:dbe4a52589f8674a181da13b198ebdc7
sts9-2007-07-06d2t02.flac:72f25792ca29e962bda13955395c7e6a
sts9-2007-07-06d2t03.flac:ad4397e2b84e59605b9ec357cba280a0
sts9-2007-07-06d2t04.flac:1fb5ff9c1502637d728ddf2d36b65223
sts9-2007-07-06d2t05.flac:8f5716fd1a301c6847f7c2523ded837b
sts9-2007-07-06d3t01.flac:0e263442e326cedf8511aa796e48bd1d
sts9-2007-07-06d3t02.flac:61df0db1dd41abbc55116a9dd0c4a7be
sts9-2007-07-06d3t03.flac:534a5a4cdccdb72c5504792041ad8728
sts9-2007-07-06d3t04.flac:ce943f67f4200a5a1165201b234325b1

SHNtool Output:

    length     expanded size   cdr  WAVE problems filename
     0:58.72       10400588    ---   --   ---xx   sts9-2007-07-06d1t01.flac
    10:44.26      113662796    ---   --   ---xx   sts9-2007-07-06d1t02.flac
     9:15.11       97927916    ---   --   ---xx   sts9-2007-07-06d1t03.flac
     5:32.69       58727132    ---   --   ---xx   sts9-2007-07-06d1t04.flac
    11:08.70      117999884    ---   --   ---xx   sts9-2007-07-06d1t05.flac
     9:33.15      101112524    ---   --   ---xx   sts9-2007-07-06d1t06.flac
     9:49.02      103904348    ---   --   ---xx   sts9-2007-07-06d1t07.flac
    16:32.27      175052348    ---   --   ---xx   sts9-2007-07-06d1t08.flac
     9:13.46       97657436    ---   --   ---xx   sts9-2007-07-06d2t01.flac
     6:13.01       65799596    ---   --   ---xx   sts9-2007-07-06d2t02.flac
     9:27.03      100025900    ---   --   ---xx   sts9-2007-07-06d2t03.flac
    10:06.22      106950188    ---   --   ---xx   sts9-2007-07-06d2t04.flac
     7:53.01       83439596    ---   --   ---xx   sts9-2007-07-06d2t05.flac
    11:49.01      125069996    ---   --   ---xx   sts9-2007-07-06d3t01.flac
    14:54.30      157772204    ---   --   ---xx   sts9-2007-07-06d3t02.flac
     7:23.08       78164060    ---   --   ---xx   sts9-2007-07-06d3t03.flac
     9:06.54       96441452    ---   --   ---xx   sts9-2007-07-06d3t04.flac
   159:41.08     1690107964 B   (totals for 17 files, 0.5641 overall compression ratio)



More information about the bittorrent mailing list