[bittorrent] dbt2007-05-01.flac16-44.1

Automated Mailer noreply-bt.e at etree.org
Tue Jul 10 20:56:42 MDT 2007


Band:           Drive-By Truckers
Torrent Name:   dbt2007-05-01.flac16-44.1
Uploaded by:    m.hibbs
DB Link:        
Details:        http://bt.etree.org/details.php?id=508111

Contact the seeder at http://db.etree.org/m.hibbs

If the link to this show does not work, it was probably removed for
being non-trade-friendly.

Description / text file:
-------------------------
Drive By Truckers
"The Dirt Underneath"
5/1/2007
Antones, Austin, TX

Source: ortf mk4>kc5>cmc6>m148>722(24/96)
Transfer: 722>IEEE1394>Bias Peak Pro 5>xACT

Recorded and Transferred by Mitchell Hibbs

disc 1
01 - Bulldozers and Dirt
02 - Carl Perkin's Cadillac
03 - NIne Bullets
04 - Sounds Better In The Song
05 - Daddy Needs A Drink
06 - Two Daughters And A Beautiful Wife
07 - Uncle Frank
08 - Heathens
09 - Tails Facing Up
10 - Panties In Your Purse
11 - After The Scene Died

disc 2
01 - Something's Got to Give Pretty Soon
02 - Cottonseed
03 - ???
04 - Gravity's Gone
05 - Road Cases
06 - Sink Hole
07 - Where The Devil Don't Stay
08 - The Living Bubba

disc 3
01 - Puttin' People On The Moon
02 - Marry Me
03 - Bob
04 - Lookout Mountain
05 - Zip City
06 - Buttholeville

=================
flac fingerprints
=================
dbt2007-05-01d1t01.flac:1fa6101ade69197c5ed41b6c032d87ec
dbt2007-05-01d1t02.flac:bb281840b4c0e9bbf56010fee61507e1
dbt2007-05-01d1t03.flac:3140ccfc2288841bba91923468ea6fcf
dbt2007-05-01d1t04.flac:8ae7a243b75e0c7a6e399fbad7a05b59
dbt2007-05-01d1t05.flac:188118ec22b2fef6bf3567daeca2503c
dbt2007-05-01d1t06.flac:b370129053b5c7e838dfbf70906e1a5c
dbt2007-05-01d1t07.flac:bfe9f55ecec457dcee3975ead9c8ac2f
dbt2007-05-01d1t08.flac:8ffaeada96759809789396f4e149ae05
dbt2007-05-01d1t09.flac:3b3f178fb977a74150d11a033426cb4d
dbt2007-05-01d1t10.flac:d3ad0e13e7dc8db6bbfe76dcb5a03f73
dbt2007-05-01d1t11.flac:dc95c1c0dc7ab2f1bd96a9e160eab183
dbt2007-05-01d2t01.flac:46d0b13ce8a61828eec026c9dae5316e
dbt2007-05-01d2t02.flac:25e8e92afe1ab64ae719f7f168334143
dbt2007-05-01d2t03.flac:063905ab00b73ee7d782313c2253b122
dbt2007-05-01d2t04.flac:d4f85f170675d7e4b69f8bafd6547044
dbt2007-05-01d2t05.flac:bd069b97a5c46886428308c991096faa
dbt2007-05-01d2t06.flac:d0db7dc8472c6d5513e088b1649d2e62
dbt2007-05-01d2t07.flac:0f5b5da1119d15d7dea196172dc9d638
dbt2007-05-01d2t08.flac:d9804717874caed421f7b5e6a39cfc7d
dbt2007-05-01d3t01.flac:639b9533761926780a062678721f8207
dbt2007-05-01d3t02.flac:b0d63f3a9aaf903edd1a23b0644d89e5
dbt2007-05-01d3t03.flac:4a036eb68547e86291a5fb71a81070df
dbt2007-05-01d3t04.flac:19dcf1d84d803678c4a9da8a0c149db2
dbt2007-05-01d3t05.flac:a932639320dba27a0480a65627d9b3db
dbt2007-05-01d3t06.flac:36ed007567dae175927b495629e2bed1


=================
shntool
=================
    length     expanded size   cdr  WAVE problems filename
     5:49.50       61681244    ---   --   -----   dbt2007-05-01d1t01.wav
     5:30.72       58381388    ---   --   -----   dbt2007-05-01d1t02.wav
     4:57.31       52463756    ---   --   -----   dbt2007-05-01d1t03.wav
     4:13.43       44730380    ---   --   -----   dbt2007-05-01d1t04.wav
     5:56.62       62944268    ---   --   -----   dbt2007-05-01d1t05.wav
     5:26.40       57600524    ---   --   -----   dbt2007-05-01d1t06.wav
     5:22.17       56840828    ---   --   -----   dbt2007-05-01d1t07.wav
     5:22.07       56817308    ---   --   -----   dbt2007-05-01d1t08.wav
     5:19.21       56321036    ---   --   -----   dbt2007-05-01d1t09.wav
     3:43.65       39490124    ---   --   -----   dbt2007-05-01d1t10.wav
     4:11.29       44344652    ---   --   -----   dbt2007-05-01d1t11.wav
     6:19.26       66916796    ---   --   -----   dbt2007-05-01d2t01.wav
     7:20.50       77733644    ---   --   -----   dbt2007-05-01d2t02.wav
     9:07.24       96547292    ---   --   -----   dbt2007-05-01d2t03.wav
     3:33.34       37653212    ---   --   -----   dbt2007-05-01d2t04.wav
     2:57.18       31265180    ---   --   -----   dbt2007-05-01d2t05.wav
     4:51.48       51445340    ---   --   -----   dbt2007-05-01d2t06.wav
     5:10.58       54820460    ---   --   -----   dbt2007-05-01d2t07.wav
     6:30.47       68906588    ---   --   -----   dbt2007-05-01d2t08.wav
    11:33.00      122245244    ---   --   -----   dbt2007-05-01d3t01.wav
     5:00.18       52962380    ---   --   -----   dbt2007-05-01d3t02.wav
     2:36.45       27624284    ---   --   -----   dbt2007-05-01d3t03.wav
     7:38.01       80793596    ---   --   -----   dbt2007-05-01d3t04.wav
     5:42.71       60495836    ---   --   -----   dbt2007-05-01d3t05.wav
     9:14.33       97803260    ---   --   -----   dbt2007-05-01d3t06.wav
   143:30.10     1518828620 B                     (totals for 25 files, 1.0000 overall compression ratio)




More information about the bittorrent mailing list