[bittorrent] Widespread Panic - 2007-06-24 - Red Rocks - Morrison, CO - JW mod AKG461

Automated Mailer noreply-bt.e at etree.org
Tue Jul 10 05:48:50 MDT 2007


Band:           Widespread Panic
Torrent Name:   Widespread Panic - 2007-06-24 - Red Rocks - Morrison, CO - JW mod AKG461
Uploaded by:    funkdoc
DB Link:        
Details:        http://bt.etree.org/details.php?id=508096

Contact the seeder at http://db.etree.org/funkdoc

If the link to this show does not work, it was probably removed for
being non-trade-friendly.

Description / text file:
-------------------------
Widespread Panic
Sunday
06/24/07
Red Rocks Amphitheatre
Morrison, CO

Source: JW mod AKG461 (DIN/6')->Oade ACM Tascam HD-P2
Transfer: flashcard->PC->Audacity (24/48->16/44)->CDWave->.flac (8)
Taped and transferred by Harrison Keijzer

Disc 1
Set 1:
01. [05:10] From The Cradle
02. [06:33] 1 x 1
03. [05:49] Who Do You Belong To?
04. [05:51] Gradle
05. [05:14] Clinic Cynic
06. [06:06] Sleeping Man ->
07. [07:07] Stop Breakin' Down Blues
08. [09:08] Sleepy Monkey ->
09. [06:27] Goodpeople ->
10. [04:38] Wondering

Disc 2
Set 2:
01. [05:53] Little Kin
02. [09:20] Bust It Big ->
03. [07:38] Jack
04. [13:57] Diner ->
05. [08:06] Fixin' To Die
06. [09:18] Papa Johnny Road ->
07. [09:10] Space Wrangler
08. [05:25] Can't Find My Way Home
09. [10:36] Ain't Life Grand

Disc 3
Encore:
01. [09:07] Surprise Valley ->
02. [07:15] Morning Dew ->
03. [06:02] Mr. Soul

[DJ Logic performed during setbreak]

-------------------------------------------------------------------------

shntool:

    length     expanded size   cdr  WAVE problems filename
     5:10.26       54745196    ---   --   ---xx   wsp2007-06-24d1t01.flac
     6:33.71       69492236    ---   --   ---xx   wsp2007-06-24d1t02.flac
     5:49.00       61563644    ---   --   ---xx   wsp2007-06-24d1t03.flac
     5:51.11       61942316    ---   --   ---xx   wsp2007-06-24d1t04.flac
     5:14.32       55464908    ---   --   ---xx   wsp2007-06-24d1t05.flac
     6:06.61       64705916    ---   --   ---xx   wsp2007-06-24d1t06.flac
     7:07.51       75442796    ---   --   ---xx   wsp2007-06-24d1t07.flac
     9:08.10       96690764    ---   --   ---xx   wsp2007-06-24d1t08.flac
     6:27.60       68407964    ---   --   ---xx   wsp2007-06-24d1t09.flac
     4:38.22       49090988    ---   --   ---xx   wsp2007-06-24d1t10.flac
     5:53.73       62440940    ---   --   ---xx   wsp2007-06-24d2t01.flac
     9:20.37       98871068    ---   --   ---xx   wsp2007-06-24d2t02.flac
     7:38.38       80880620    ---   --   ---xx   wsp2007-06-24d2t03.flac
    13:57.41      147743276    ---   --   ---xx   wsp2007-06-24d2t04.flac
     8:06.70       85895084    ---   --   ---xx   wsp2007-06-24d2t05.flac
     9:18.72       98600588    ---   --   ---xx   wsp2007-06-24d2t06.flac
     9:10.39       97111772    ---   --   ---xx   wsp2007-06-24d2t07.flac
     5:25.02       57334748    ---   --   ---xx   wsp2007-06-24d2t08.flac
    10:36.05      112202204    ---   --   ---xx   wsp2007-06-24d2t09.flac
     9:07.52       96613148    ---   --   ---xx   wsp2007-06-24d3t01.flac
     7:15.57       76868108    ---   --   ---xx   wsp2007-06-24d3t02.flac
     6:03.37       64120268    ---   --   ---xx   wsp2007-06-24d3t03.flac
   164:02.42     1736228552 B                     (totals for 22 files, 0.5568 overall compression ratio)

-------------------------------------------------------------------------

ffp:

wsp2007-06-24.akg461.d1t01.flac:62d93d0b326d15975fa51a17503fcc0e
wsp2007-06-24.akg461.d1t02.flac:3c35af49b51198276fb4642f171b8869
wsp2007-06-24.akg461.d1t03.flac:0b9c7a438adfd5f60f51b1f58c735dc1
wsp2007-06-24.akg461.d1t04.flac:7e9ec9d0f7007f20a23a212ee0476986
wsp2007-06-24.akg461.d1t05.flac:374b9bba6b030db9d6811de80fc7dd88
wsp2007-06-24.akg461.d1t06.flac:14ab0a15ec5a04121add387892a659b8
wsp2007-06-24.akg461.d1t07.flac:51b3d5750bd0968b2bf823b4566227a9
wsp2007-06-24.akg461.d1t08.flac:e86ebc4645a78b64c63e6c0dd3ae5cdf
wsp2007-06-24.akg461.d1t09.flac:a10253532e7863f0001e7cea49be2196
wsp2007-06-24.akg461.d1t10.flac:c0359fe50a7157228f8f7cdea98404bf
wsp2007-06-24.akg461.d2t01.flac:ab238402cdc59b538e93cd54763d4a88
wsp2007-06-24.akg461.d2t02.flac:4cd3033da193224c9e3f4bfe9c17251b
wsp2007-06-24.akg461.d2t03.flac:dbfcc6305145ab7d3d23176a516e65d7
wsp2007-06-24.akg461.d2t04.flac:ea4f7d1e7d2bea4cf0a09e7a6a6c897d
wsp2007-06-24.akg461.d2t05.flac:6ef280dd046131918198159bda6b6ccf
wsp2007-06-24.akg461.d2t06.flac:15b8bc3fc6f44bbc0917fba40b41c4b3
wsp2007-06-24.akg461.d2t07.flac:87f9a5192b7a69a3433d9047359828f4
wsp2007-06-24.akg461.d2t08.flac:3b99812e3f24ddcbd01c9ebf98f4244e
wsp2007-06-24.akg461.d3t01.flac:8ee8ab874a6c5218ec50996af3045fb4
wsp2007-06-24.akg461.d3t02.flac:bc5c159dd849f9d34763e827b0fe9763
wsp2007-06-24.akg461.d3t03.flac:cc3cb1d2c6171336939358caa28f6ce4
wsp2007-06-24.akg461.d3t04.flac:d8df1f0194b348306c5dc35919a33e31




More information about the bittorrent mailing list