[bittorrent] WSP2007-06-24 Red Rocks, Morrison, Co. *mk4*

Automated Mailer noreply-bt.e at etree.org
Mon Jul 9 21:49:38 MDT 2007


Band:           Widespread Panic
Torrent Name:   WSP2007-06-24 Red Rocks, Morrison, Co. *mk4*
Uploaded by:    cbd
DB Link:        
Details:        http://bt.etree.org/details.php?id=508088

Contact the seeder at http://db.etree.org/cbd

If the link to this show does not work, it was probably removed for
being non-trade-friendly.

Description / text file:
-------------------------
Widespread Panic
June 24, 2007
Red Rocks
Morrison, Co.

source: Schoeps mk4(din)>kcy>Sonosax>744t (24/96)
location: ots/dfc
transfer744T>soundforge 7.0(fades/resample/bit depth)>cd wave>flac
recorded & seeded: craig davis

Disc 1/Set 1:
01 Intro/tuning
02 From The Cradle
03 1 x 1
04 Who Do You Belong To?
05 Gradle
06 Cynic Clinic
07 Sleeping Man>
08 Stop Breaking Down Blues
09 Sleepy Monkey
10 Good People
11 Wonderin'

Disc2/Set 2:
01 Intro/tuning
02 Little Kin
03 Bust It Big
04 Jack
05 Diner>
06 Fixin' To Die
07 Papa Johnny>
08 Space Wrangler
09 Can't Find My Way HOme

Disc 3/Set 2 (cont.):
01 Ain't Life Grand?
Encore:
02 Suprise Valley>
03 Morning Dew>
04 Mr. Soul
Filler:
05 DJ Logic set


WSP2007-06-24d1t01.flac:ed4d87e59ea2061977372cb6f79a1a4d
WSP2007-06-24d1t02.flac:660172ca638f4d0aa6e810ea0aa8ddce
WSP2007-06-24d1t03.flac:0069c084357e601e59b0c2ad859cb394
WSP2007-06-24d1t04.flac:170ea546a64975c89b07266d03863c8d
WSP2007-06-24d1t05.flac:225027ed9ef1b3f3973688e9eb3cd85a
WSP2007-06-24d1t06.flac:7132fae425938747c1c71c296b22ad53
WSP2007-06-24d1t07.flac:473428a6969d92b5f1b26171c52eb9fc
WSP2007-06-24d1t08.flac:90cea79172498e3895413210588a5a5c
WSP2007-06-24d1t09.flac:63135eacb3da235b80241a1b734d66a4
WSP2007-06-24d1t10.flac:4dfd3664aa06b3a09e616cbbf0e87873
WSP2007-06-24d1t11.flac:68cf3b2c7099cff6cbbe0fd9e98e4481
WSP2007-06-24d2t01.flac:a2e58a2ee3ea21aac4f14df14388a988
WSP2007-06-24d2t02.flac:cb4e9d48c753ac9c31b61b0d8a725606
WSP2007-06-24d2t03.flac:395b0c04304910a222591c590b785a85
WSP2007-06-24d2t04.flac:ba683ad6858e30334d427492b3242378
WSP2007-06-24d2t05.flac:30748dadd3ed8c5a2e9d4779d954a76e
WSP2007-06-24d2t06.flac:2571a05444fd631103de82fef6814df5
WSP2007-06-24d3t01.flac:cd3107d27e13738c9eb43ba789cd156b
WSP2007-06-24d3t02.flac:bcd0746e4cace0f7b885e36779a31dff
WSP2007-06-24d3t03.flac:f27c1a354f705a6e3213ef98d5507dc3
WSP2007-06-24d3t04.flac:095284c55f04c2b6234d2f77335b0a5d
WSP2007-06-24d3t05.flac:eafd951bfe7e8cc20003a7b0f1417cd3
WSP2007-06-24d3t06.flac:45f2f5431a8c7f7973835e4fddad6504
WSP2007-06-24d3t07.flac:db100c1b47aa5105e42d093ebc21044b
WSP2007-06-24Logicd3t08.flac:b9df4a8d938422891227a725971066cd

length     expanded size   cdr  WAVE problems filename
     0:56.54       10005452    ---   --   ---xx   WSP2007-06-24d1t01.flac
     4:06.61       43537916    ---   --   ---xx   WSP2007-06-24d1t02.flac
     6:32.47       69259388    ---   --   ---xx   WSP2007-06-24d1t03.flac
     5:39.58       59936060    ---   --   ---xx   WSP2007-06-24d1t04.flac
     6:00.55       63633404    ---   --   ---xx   WSP2007-06-24d1t05.flac
     5:14.33       55467260    ---   --   ---xx   WSP2007-06-24d1t06.flac
     6:06.05       64574204    ---   --   ---xx   WSP2007-06-24d1t07.flac
     7:04.38       74883020    ---   --   ---xx   WSP2007-06-24d1t08.flac
     9:11.23       97250540    ---   --   ---xx   WSP2007-06-24d1t09.flac
     6:28.35       68525564    ---   --   ---xx   WSP2007-06-24d1t10.flac
     4:27.60       47239964    ---   --   ---xx   WSP2007-06-24d1t11.flac
     0:25.71        4577036    ---   --   ---xx   WSP2007-06-24d2t01.flac
     5:21.24       56680892    ---   --   ---xx   WSP2007-06-24d2t02.flac
     9:18.01       98433596    ---   --   ---xx   WSP2007-06-24d2t03.flac
     7:40.33       81221660    ---   --   ---xx   WSP2007-06-24d2t04.flac
    13:58.20      147870284    ---   --   ---xx   WSP2007-06-24d2t05.flac
     8:05.56       85685756    ---   --   ---xx   WSP2007-06-24d2t06.flac
     9:18.47       98541788    ---   --   ---xx   WSP2007-06-24d2t07.flac
     9:11.52       97318748    ---   --   ---xx   WSP2007-06-24d2t08.flac
     5:15.01       55568396    ---   --   ---xx   WSP2007-06-24d2t09.flac
    10:44.05      113613404    ---   --   ---xx   WSP2007-06-24d3t01.flac
     9:05.22       96189788    ---   --   ---xx   WSP2007-06-24d3t02.flac
     7:20.54       77743052    ---   --   ---xx   WSP2007-06-24d3t03.flac
     5:26.67       57664028    ---   --   ---xx   WSP2007-06-24d3t04.flac
    45:19.48      479744540    ---   --   ---xx   WSP2007-06-24Logicd3t05.flac
   208:20.70     2205165740 B                     (totals for 25 files, 0.5577 overall compression ratio)




More information about the bittorrent mailing list