[bittorrent] Sound Tribe Sector 9 @ RE:Generation 7/8/2007 (mk4)

Automated Mailer noreply-bt.e at etree.org
Mon Jul 9 17:33:41 MDT 2007


Band:           Sound Tribe Sector 9
Torrent Name:   Sound Tribe Sector 9 @ RE:Generation 7/8/2007 (mk4)
Uploaded by:    tedgerto
DB Link:        
Details:        http://bt.etree.org/details.php?id=508083

Contact the seeder at http://db.etree.org/tedgerto

If the link to this show does not work, it was probably removed for
being non-trade-friendly.

Description / text file:
-------------------------
Sound Tribe Sector 9
July 8th, 2007
RE:Generation
Deerfields, NC

**Late Show**

Source: mk4 > kc5 > cmc6 > m248 > mini-me > tascam hd-p2 (24/96)
Location: dfc, fob, ortf, 8' stand
Transfer: Transfer: CF > Wavelab (edits/fades/resampled/dithered-UV22HR) > FLAC (lvl 6)
Taped & transferred by Todd (titotito at gmail)

Set 1/Disc 1:
01 - Intro/Murph
02 - Instantly 
03 - Move my Peeps
04 - Unquestionable Supremacy
05 - Velez *
06 - Ramone & Emiglio
07 - The Rabble
08 - Open e

Set 2/Disc 2:
01 - Lo Swaga
02 - 1103
03 - One a Day
04 - 303* > hip-hop* 
05 - Surreality* > Eb*
06 - Blu Mood

Set 2/Disc 3:
Encore 1
01 - Baraka
02 - Evasive
Encore 2
03 - Grow

Setlist thanks to www.soundtribe.org
Thanks to STS9 for a great weekend!
** = w/ Richard Devine on laptop/synth

FLAC Fingerprint:

sts9-2007-07-08d1t01.flac:cdf8a75b88fbf329878b4f12e01bfcb3
sts9-2007-07-08d1t02.flac:e77b314a4ee1df3159b79b9411f72160
sts9-2007-07-08d1t03.flac:d8487d8e5f86490e0155f6c3bbdf5a7e
sts9-2007-07-08d1t04.flac:0fadd103635b30d36b170a6f29a54ac4
sts9-2007-07-08d1t05.flac:cab3bedcf4f93ac967069cf1f41939e7
sts9-2007-07-08d1t06.flac:8952f1d9bb5c1b5eb1b9233cc1dceae8
sts9-2007-07-08d1t07.flac:cb914b85c6930554fbe74d0b03c8adf7
sts9-2007-07-08d1t08.flac:cc14a884e17ec438dad19fccb1dae10d
sts9-2007-07-08d2t01.flac:aeacb19ef1afe1ab9f6a247d8b371f2c
sts9-2007-07-08d2t02.flac:bce911d59055114edd3fedd8696bfa18
sts9-2007-07-08d2t03.flac:1cce4bbbbb314d873a6ed819111ca743
sts9-2007-07-08d2t04.flac:6474421575ab5694138153a764d5c21d
sts9-2007-07-08d2t05.flac:e60fc0ad5732c3604145739b1173e90c
sts9-2007-07-08d2t06.flac:e7363f017b249b3aa7f696cc714971a4
sts9-2007-07-08d3t01.flac:787fe1bd6048c9f094f1a87783b073d3
sts9-2007-07-08d3t02.flac:21f49a733f37a49414e6340ac5d83a4d
sts9-2007-07-08d3t03.flac:c468e8a5f892ba8510ab40f63dfac495

SHNtool Output:

    length     expanded size   cdr  WAVE problems filename
     1:18.31       13832156    ---   --   ---xx   sts9-2007-07-08d1t01.flac
     7:30.23       79434140    ---   --   ---xx   sts9-2007-07-08d1t02.flac
    13:29.04      142717052    ---   --   ---xx   sts9-2007-07-08d1t03.flac
     9:04.25       96020444    ---   --   ---xx   sts9-2007-07-08d1t04.flac
     5:56.06       62812556    ---   --   ---xx   sts9-2007-07-08d1t05.flac
    16:49.12      178015868    ---   --   ---xx   sts9-2007-07-08d1t06.flac
     7:38.08       80810060    ---   --   ---xx   sts9-2007-07-08d1t07.flac
     9:30.31      100620956    ---   --   ---xx   sts9-2007-07-08d1t08.flac
     6:48.54       72098252    ---   --   ---xx   sts9-2007-07-08d2t01.flac
     6:31.21       69021836    ---   --   ---xx   sts9-2007-07-08d2t02.flac
     7:21.38       77881820    ---   --   ---xx   sts9-2007-07-08d2t03.flac
    10:12.64      108107372    ---   --   ---xx   sts9-2007-07-08d2t04.flac
    21:02.52      222739148    ---   --   ---xx   sts9-2007-07-08d2t05.flac
    14:11.58      150252860    ---   --   ---xx   sts9-2007-07-08d2t06.flac
     9:58.28      105553100    ---   --   ---xx   sts9-2007-07-08d3t01.flac
    19:16.00      203918444    ---   --   ---xx   sts9-2007-07-08d3t02.flac
     8:10.33       86513660    ---   --   ---xx   sts9-2007-07-08d3t03.flac
   174:49.38     1850349724 B  (totals for 17 files, 0.5847 overall compression ratio)



More information about the bittorrent mailing list