[bittorrent] Widespread Panic - 2007-06-23 - Red Rocks - Morrison, CO - JW mod AKG461

Automated Mailer noreply-bt.e at etree.org
Mon Jul 9 16:07:56 MDT 2007


Band:           Widespread Panic
Torrent Name:   Widespread Panic - 2007-06-23 - Red Rocks - Morrison, CO - JW mod AKG461
Uploaded by:    funkdoc
DB Link:        
Details:        http://bt.etree.org/details.php?id=508080

Contact the seeder at http://db.etree.org/funkdoc

If the link to this show does not work, it was probably removed for
being non-trade-friendly.

Description / text file:
-------------------------
Widespread Panic
Saturday
06/23/07
Red Rocks Amphitheatre
Morrison, CO

Source: JW mod AKG461 (DIN/6')->m148->Oade ACM Tascam HD-P2
Transfer: flashcard->PC->Audacity (24/48->16/44)->CDWave->.flac (8)
Taped and transferred by Harrison Keijzer

Disc 1
Set 1:
01. [08:11] Pigeons ->
02. [05:19] Better Off
03. [05:53] All Time Low
04. [04:42] Down
05. [08:03] Party At Your Mama's House ->
06. [08:24] Blackout Blues
07. [07:39] Pickin' Up The Pieces
08. [14:23] Airplane ->
09. [07:24] Rock

Disc 2
Set 2:
01. [09:14] Pleas ->
02. [09:06] Chilly Water
03. [05:02] Thought Sausage
04. [03:52] Aunt Avis ->
05. [14:30] Second Skin ->
06. [07:17] Greta ->
07. [06:48] Barstools and Dreamers ->
08. [02:59] Machine ->
09. [04:33] Barstools and Dreamers*

Disc 3
01. [18:05] Dyin' Man* -> Jam* -> Drums* ->
02. [11:36] Red Hot Mama*
Encore:
03. [02:12] The Take Out ->
04. [05:37] Smoking Factory ->
05. [03:22] Porch Song
06. [07:25] End Of The Show

* with DJ Logic on turntables
[DJ Logic performed during setbreak; Entire show with Edie Jackson, sign language interpreter]

-------------------------------------------------------------------------

shntool:

    length     expanded size   cdr  WAVE problems filename
     8:11.43       86713580    ---   --   ---xx   wsp2007-06-23d1t01.flac
     5:19.36       56356316    ---   --   ---xx   wsp2007-06-23d1t02.flac
     5:53.13       62299820    ---   --   ---xx   wsp2007-06-23d1t03.flac
     4:42.58       49881260    ---   --   ---xx   wsp2007-06-23d1t04.flac
     8:03.61       85344716    ---   --   ---xx   wsp2007-06-23d1t05.flac
     8:24.69       89067932    ---   --   ---xx   wsp2007-06-23d1t06.flac
     7:39.01       80969996    ---   --   ---xx   wsp2007-06-23d1t07.flac
    14:23.26      152294396    ---   --   ---xx   wsp2007-06-23d1t08.flac
     7:24.39       78413372    ---   --   ---xx   wsp2007-06-23d1t09.flac
     9:14.31       97798556    ---   --   ---xx   wsp2007-06-23d2t01.flac
     9:06.40       96408524    ---   --   ---xx   wsp2007-06-23d2t02.flac
     5:02.20       53319884    ---   --   ---xx   wsp2007-06-23d2t03.flac
     3:52.11       40950716    ---   --   ---xx   wsp2007-06-23d2t04.flac
    14:30.74      153642092    ---   --   ---xx   wsp2007-06-23d2t05.flac
     7:17.11       77112716    ---   --   ---xx   wsp2007-06-23d2t06.flac
     6:48.16       72008876    ---   --   ---xx   wsp2007-06-23d2t07.flac
     2:59.08       31594460    ---   --   ---xx   wsp2007-06-23d2t08.flac
     4:33.62       48303068    ---   --   ---xx   wsp2007-06-23d2t09.flac
    18:05.14      191426972    ---   --   ---xx   wsp2007-06-23d3t01.flac
    11:36.10      122797964    ---   --   ---xx   wsp2007-06-23d3t02.flac
     2:12.14       23317772    ---   --   ---xx   wsp2007-06-23d3t03.flac
     5:37.66       59602076    ---   --   ---xx   wsp2007-06-23d3t04.flac
     3:22.34       35712812    ---   --   ---xx   wsp2007-06-23d3t05.flac
     7:25.07       78514508    ---   --   ---xx   wsp2007-06-23d3t06.flac
   181:46.14     1923852384 B                     (totals for 24 files, 0.5783 overall compression ratio)

-------------------------------------------------------------------------

ffp:

wsp2007-06-23.akg461.d1t01.flac:3a5920dacab570c46fdb89ac908ed469
wsp2007-06-23.akg461.d1t02.flac:462c2fbb33067fe2dc03c8cb5ae5a4be
wsp2007-06-23.akg461.d1t03.flac:5c582aaae26440e855cd6dc1dcbedeba
wsp2007-06-23.akg461.d1t04.flac:e16c737ed6244648473c5fbb62413da4
wsp2007-06-23.akg461.d1t05.flac:b33de1ec6bc90a89452ecbd605361221
wsp2007-06-23.akg461.d1t06.flac:cf28f093334e35a460fc7098176556f1
wsp2007-06-23.akg461.d1t07.flac:d927ac17ca1f79a07920ae9fc8c1cb89
wsp2007-06-23.akg461.d1t08.flac:bbb0b2e9a7ee63783eea55f5bfb53dd6
wsp2007-06-23.akg461.d1t09.flac:2631a295bfc1052c047a6d48e63bad66
wsp2007-06-23.akg461.d2t01.flac:a7cf7ce5c9d35e2272aa789114c84f07
wsp2007-06-23.akg461.d2t02.flac:c5567c7c55b63f7ad5c8b6b8c0892a0a
wsp2007-06-23.akg461.d2t03.flac:0be414b627b3b78cc976142c80df43a5
wsp2007-06-23.akg461.d2t04.flac:dbf1454daeb1d47168527d4482e5d7a5
wsp2007-06-23.akg461.d2t05.flac:65d923517c77d385b5ba8c5248b0db89
wsp2007-06-23.akg461.d2t06.flac:42b59a2813cda013adfa62e21ba15393
wsp2007-06-23.akg461.d2t07.flac:962fc23ce64b5f91c0fe6f397a189bc0
wsp2007-06-23.akg461.d2t08.flac:df350f12ef6e9abf797f9d695ca4285c
wsp2007-06-23.akg461.d2t09.flac:0cc5b7805d5850755708bb786a970a11
wsp2007-06-23.akg461.d3t01.flac:abcd37265e37b1f7090ce193db5caee5
wsp2007-06-23.akg461.d3t02.flac:f1fec7a2b18afaace071e22dcf595bf8
wsp2007-06-23.akg461.d3t03.flac:99a9f80c0a30cd238336e1566947135d
wsp2007-06-23.akg461.d3t04.flac:d209180249038403ce1b93957c07e0ac
wsp2007-06-23.akg461.d3t05.flac:674056fe1e6b5963361b03b38afc537f
wsp2007-06-23.akg461.d3t06.flac:cb9d684625a829cba9f5c39ee84fa8b1



More information about the bittorrent mailing list